Berliner Philharmoniker (Gustavo Dudamel - Густаво Дудамель) - Waldbühne (Waldbuhne) 2014 (Чайковский, Johannes Brahms, Leonard Bernstein, Gioachino Rossini, Paul Lincke) [2014, Classical / Orchestral / Open-Air-Konzert, HDTV 720p] 3sat


 

[Цитировать]

Waldbühne 2014
Berliner Philharmoniker • Gustavo Dudamel

-
Год выпуска: 2014
Лейбл: rbb, EuroArts
Жанр: Classical / Orchestral / Open-Air-Konzert
Продолжительность: 02:16:32
Язык: немецкий (Petra Gute - moderation)
Режиссер: Henning Kasten
Исполнители:
Gustavo Dudamel - Musikalische Leitung
Berliner Philharmoniker
Треклист:
Peter Tschaikowsky
- Der Sturm - Symphonische Fantasie Nach Sheakespeare op. 18
- Romeo und Julia - Fantasie-Ouvertüre Nach Sheakespeare
Johannes Brahms - Symphonie Nr. 1 c-Moll op. 68
Leonard Bernstein - Divirtimento - Walzer
Gioachino Rossini - Ouvertüre zu "Wilhelm Tell" - Allegro Vivace
Paul Lincke - Berliner Luft
Доп. информация:
Das traditionelle Sommerkonzert am 27.06.2014, Waldbühne Berlin im Olympiapark
... в этой live-записи концерта также есть интервью с Gustavo Dudamel
и небольшой рассказ о концертах Waldbühne прошлых годов ...
Berliner Philharmoniker waldbuehne-berlin.de
Die Berliner Philharmoniker in der Waldbühne 2014 3sat.de
Gustavo Dudamel Official Site
Gustavo Dudamel from Wikipedia, the free encyclopedia
Gustavo Dudamel материал из Википедии - свободной энциклопедии
Berliner Philharmoniker Official Site
Berliner Philharmoniker from Wikipedia, the free encyclopedia
Berliner Philharmoniker материал из Википедии - свободной энциклопедии
Качество видео: HDTV 720p
Контейнер: TS
Видео кодек: H.264
Аудио кодек: AC3
Видео поток: 13.1 Mbps, 1280*720 (16:9), at 50.000 fps, AVC (High@L4.0) (CABAC / 6 Ref Frames)
Аудио поток: German, 256 Kbps, 48.0 KHz, 2 channels, MPEG Audio (Version 1) (Layer 2)
Аудио 2: 192 Kbps, 48.0 KHz, 2 channels, MPEG Audio (Version 1) (Layer 2)
Аудио 3: German, 448 Kbps, 48.0 KHz, 16 bits, 2 channels, AC-3
Аудио 4: Multiple languages, 192 Kbps, 48.0 KHz, 2 channels, MPEG Audio (Version 1) (Layer 2)
Источник: Digital Satellite > SkyStar HD2 (TechniSat) > raw data to HDD > ts

MediaInfo

GeneralID : 8900 (0x22C4)Complete name : C:\rutracker.org_HD\3sat HD_Berliner Philharmoniker - Waldbuhne 2014.tsFormat : MPEG-TSFile size : 14.3 GiBDuration : 2h 16mnOverall bit rate mode : VariableOverall bit rate : 15.0 Mbps
VideoID : 6510 (0x196E)Menu ID : 11150 (0x2B8E)Format : AVCFormat/Info : Advanced Video CodecFormat profile : High@L4.0Format settings, CABAC : YesFormat settings, ReFrames : 6 framesFormat settings, GOP : M=4, N=29Codec ID : 27Duration : 2h 16mnBit rate : 13.1 MbpsWidth : 1 280 pixelsHeight : 720 pixelsDisplay aspect ratio : 16:9Frame rate : 50.000 fpsColor space : YUVChroma subsampling : 4:2:0Bit depth : 8 bitsScan type : ProgressiveBits/(Pixel*Frame) : 0.285Stream size : 12.5 GiB (88%)Color primaries : BT.709Transfer characteristics : BT.709Matrix coefficients : BT.709
Audio #1ID : 6520 (0x1978)Menu ID : 11150 (0x2B8E)Format : MPEG AudioFormat version : Version 1Format profile : Layer 2Codec ID : 3Duration : 2h 16mnBit rate mode : ConstantBit rate : 256 KbpsChannel(s) : 2 channelsSampling rate : 48.0 KHzCompression mode : LossyDelay relative to video : -410msStream size : 250 MiB (2%)Language : German
Audio #2ID : 6521 (0x1979)Menu ID : 11150 (0x2B8E)Format : MPEG AudioFormat version : Version 1Format profile : Layer 2Codec ID : 3Duration : 2h 16mnBit rate mode : ConstantBit rate : 192 KbpsChannel(s) : 2 channelsSampling rate : 48.0 KHzCompression mode : LossyDelay relative to video : -410msStream size : 187 MiB (1%)
Audio #3ID : 6522 (0x197A)Menu ID : 11150 (0x2B8E)Format : AC-3Format/Info : Audio Coding 3Mode extension : CM (complete main)Format settings, Endianness : BigCodec ID : 6Duration : 2h 16mnBit rate mode : ConstantBit rate : 448 KbpsChannel(s) : 2 channelsChannel positions : Front: L RSampling rate : 48.0 KHzBit depth : 16 bitsCompression mode : LossyDelay relative to video : -374msStream size : 437 MiB (3%)Language : German
Audio #4ID : 6523 (0x197B)Menu ID : 11150 (0x2B8E)Format : MPEG AudioFormat version : Version 1Format profile : Layer 2Codec ID : 3Duration : 2h 16mnBit rate mode : ConstantBit rate : 192 KbpsChannel(s) : 2 channelsSampling rate : 48.0 KHzCompression mode : LossyDelay relative to video : -450msStream size : 187 MiB (1%)Language : Multiple languages
... info ...">

Скриншоты ... info ...


Die Berliner Philharmoniker in der Waldbühne 2014
Gustavo Dudamel dirigiert Brahms und Tschaikowsky
Es ist jedes Jahr wieder ein Highlight in der deutschen Hauptstadt: Ihr letztes Konzert der Saison geben die Berliner Philharmoniker vor 20.000 Zuhörern unter freiem Himmel in der Berliner Waldbühne.
Gustavo Dudamel, Chef der Göteborger Symphoniker und des Los Angeles Philharmonic Orchestra, dirigiert im Jahr des 450. Geburtstages von William Shakespeare zwei Orchesterwerke Peter Tschaikowskys, die Stoffe des großen englischen Dichters aufgreifen. Die Symphonische Fantasie "Der Sturm" und die Fantasie-Ouvertüre "Romeo und Julia". In letzterer führt Tschaikowsky den Hörer durch ganz unterschiedliche Gefühlssphären: der religiös, kontemplativen des Mönches Lorenzo, der hasserfüllten der beiden verfeindeten Adelsfamilien und der romantischen, schwelgerischen des Liebespaares. Außerdem spielen die Berliner Philharmoniker die Symphonie Nr. 1 c-Moll op. 68 von Johannes Brahms.
Brahms und Tschaikowsky verband nicht viel, auch wenn sie am selben Tag, dem 7. Mai, Geburtstag hatten und beide am Pult der Berliner Philharmoniker standen, um eigene Werke mit dem Orchester aufzuführen. Obwohl sie sich mehrmals persönlich begegneten, standen sie einander eher reserviert gegenüber. So fand Peter Tschaikowsky keinen Zugang zu Brahms' Musik, die er als zu konstruiert und unmelodiös empfand.
~ 3sat.de



Показать сообщения:    

Текущее время: 09-Дек 12:47

Часовой пояс: UTC + 3


Вы не можете начинать темы
Вы не можете отвечать на сообщения
Вы не можете редактировать свои сообщения
Вы не можете удалять свои сообщения
Вы не можете голосовать в опросах
Вы не можете прикреплять файлы к сообщениям
Вы не можете скачивать файлы