Antonin Dvorak, Symphonie Nr. 9 in e-moll "Aus der Neuen Welt" opus 95 (Symphonieorchester des Bayerischen Rundfunks, Rafael Kubelik) [1977, Classical / Orchestral / Concert, HDTV 720p]


 

[Цитировать]

Antonin Dvorak
Symphonie Nr. 9 in e-moll "Aus der Neuen Welt" opus 95
Symphonieorchester des Bayerischen Rundfunks • Rafael Kubelik

-
Год выпуска: 1977
Жанр: Classical / Orchestral / Concert
Продолжительность: 00:42:31
Режиссер: Hugo Käch
Исполнители:
Symphonieorchester des Bayerischen Rundfunks
Rafael Kubelik - dirigierte
Треклист:
Antonin Dvorak - Symphonie Nr. 9 in e-moll "Aus der Neuen Welt" opus 95
- I. Adagio, Allegro molto
- II. Largo
- III. Molto vivace
- IV. Allegro con fuoco
Доп. информация:
Herkulessaal Munich, December, 1977
Rafael Kubelik dirigiert br.de
Rafael Kubelik zum 100. Geburtstag br.de
Antonín Dvořák from Wikipedia, the free encyclopedia
Antonín Dvořák материал из Википедии - свободной энциклопедии
Rafael Kubelik from Wikipedia, the free encyclopedia
Rafael Kubelik материал из Википедии - свободной энциклопедии
Качество видео: HDTV 720p
Формат: TS
Видео кодек: H.264
Аудио кодек: AC3
Видео поток: 11.2 Mbps, 1280*720 (16:9), at 50.000 fps, AVC (High@L4.0) (CABAC / 4 Ref Frames)
Аудио поток: German, 192 Kbps, 48.0 KHz, 2 channels, MPEG Audio (Version 1) (Layer 2)
Аудио 2: 192 Kbps, 48.0 KHz, 2 channels, MPEG Audio (Version 1) (Layer 2)
Аудио 3: German, 448 Kbps, 48.0 KHz, 16 bits, 2 channels, AC-3
Источник: Digital Satellite > SkyStar HD2 (TechniSat) > raw data to HDD > Cypheros TS-Doctor > VideoReDo TVSuite v4 (cut) > ts

MediaInfo

GeneralID : 1 (0x1)Complete name : C:\rutracker.org_HD\BR HD_Antonin Dvorak, Symphonie Nr. 9 (Rafael Kubelik).tsFormat : MPEG-TSFile size : 3.76 GiBDuration : 42mn 31sOverall bit rate mode : VariableOverall bit rate : 12.6 Mbps
VideoID : 5201 (0x1451)Menu ID : 1 (0x1)Format : AVCFormat/Info : Advanced Video CodecFormat profile : High@L4.0Format settings, CABAC : YesFormat settings, ReFrames : 4 framesFormat settings, GOP : M=8, N=32Codec ID : 27Duration : 42mn 31sBit rate : 11.2 MbpsWidth : 1 280 pixelsHeight : 720 pixelsDisplay aspect ratio : 16:9Frame rate : 50.000 fpsColor space : YUVChroma subsampling : 4:2:0Bit depth : 8 bitsScan type : ProgressiveBits/(Pixel*Frame) : 0.243Stream size : 3.32 GiB (88%)
Audio #1ID : 5202 (0x1452)Menu ID : 1 (0x1)Format : MPEG AudioFormat version : Version 1Format profile : Layer 2Codec ID : 3Duration : 42mn 31sBit rate mode : ConstantBit rate : 192 KbpsChannel(s) : 2 channelsSampling rate : 48.0 KHzCompression mode : LossyStream size : 58.4 MiB (2%)Language : German
Audio #2ID : 5203 (0x1453)Menu ID : 1 (0x1)Format : MPEG AudioFormat version : Version 1Format profile : Layer 2Codec ID : 3Duration : 42mn 31sBit rate mode : ConstantBit rate : 192 KbpsChannel(s) : 2 channelsSampling rate : 48.0 KHzCompression mode : LossyStream size : 58.4 MiB (2%)
Audio #3ID : 5206 (0x1456)Menu ID : 1 (0x1)Format : AC-3Format/Info : Audio Coding 3Mode extension : CM (complete main)Format settings, Endianness : BigCodec ID : 6Duration : 42mn 31sBit rate mode : ConstantBit rate : 448 KbpsChannel(s) : 2 channelsChannel positions : Front: L RSampling rate : 48.0 KHzBit depth : 16 bitsCompression mode : LossyStream size : 136 MiB (4%)Language : German



Показать сообщения:    

Текущее время: 06-Дек 11:14

Часовой пояс: UTC + 3


Вы не можете начинать темы
Вы не можете отвечать на сообщения
Вы не можете редактировать свои сообщения
Вы не можете удалять свои сообщения
Вы не можете голосовать в опросах
Вы не можете прикреплять файлы к сообщениям
Вы не можете скачивать файлы