Berliner Philharmoniker - Sol Gabetta & Sir Simon Rattle - Osterfestspiele 2014 (Gyorgy Ligeti, Richard Wagner, Edward Elgar, Igor Stravinsky, Игорь Стравинский) [2014, Classical / Orchestral / Cello, HDTV 720p]


 

[Цитировать]

Berliner Philharmoniker
Sol Gabetta & Sir Simon Rattle

Osterfestspiele 2014

-
Год выпуска: 2014
Лейбл: SWR, EuroArts
Жанр: Classical / Orchestral / Violin
Продолжительность: 01:38:13
Язык: немецкий, французский (moderation)
Режиссер: Torben Schmidt Jacobsen
Исполнители:
Sol Gabetta - cello
Sir Simon Rattle - Musikalische Leitung
Berliner Philharmoniker
Треклист:
György Ligeti - Atmospheres
Richard Wagner - Vorspiel zum 1. Akt des "Lohengrin"
Edward Elgar - Cellokonzert
Igor Stravinsky - Le Sacred u Printemps
Доп. информация:
Osterfestspiele 2014, Festspielhaus Baden-Baden
Sol Gabetta Official Site
Sol Gabetta from Wikipedia, the free encyclopedia
Sol Gabetta материал из Википедии - свободной энциклопедии
Sir Simon Rattle from Wikipedia, the free encyclopedia
Sir Simon Rattle материал из Википедии - свободной энциклопедии
Berliner Philharmoniker Official Site
Berliner Philharmoniker from Wikipedia, the free encyclopedia
Berliner Philharmoniker материал из Википедии - свободной энциклопедии
Качество видео: HDTV 720p
Контейнер: TS
Видео кодек: H.264
Аудио кодек: AC3
Видео поток: 10.6 Mbps, 1280*720 (16:9), at 50.000 fps, AVC (High@L4.0) (CABAC / 4 Ref Frames)
Аудио поток: German, 192 Kbps, 48.0 KHz, 2 channels, MPEG Audio (Version 1) (Layer 2)
Аудио 2: French, 192 Kbps, 48.0 KHz, 2 channels, MPEG Audio (Version 1) (Layer 2)
Аудио 3: Multiple languages, 448 Kbps, 48.0 KHz, 16 bits, 6 channels, AC-3
Аудио 4: 192 Kbps, 48.0 KHz, 2 channels, MPEG Audio (Version 1) (Layer 2)
Источник: Digital Satellite > SkyStar HD2 (TechniSat) > raw data to HDD > Cypheros TS-Doctor > ts

MediaInfo

GeneralID : 8900 (0x22C4)Complete name : C:\rutracker.org_HD\arte HD_Berliner Philharmoniker - Sol Gabetta & Sir Simon Rattle - Osterfestspielen 2014.tsFormat : MPEG-TSFile size : 8.41 GiBDuration : 1h 38mnOverall bit rate mode : VariableOverall bit rate : 12.3 Mbps
VideoID : 5111 (0x13F7)Menu ID : 10302 (0x283E)Format : AVCFormat/Info : Advanced Video CodecFormat profile : High@L4.0Format settings, CABAC : YesFormat settings, ReFrames : 4 framesCodec ID : 27Duration : 1h 38mnBit rate : 10.6 MbpsWidth : 1 280 pixelsHeight : 720 pixelsDisplay aspect ratio : 16:9Frame rate : 50.000 fpsColor space : YUVChroma subsampling : 4:2:0Bit depth : 8 bitsScan type : ProgressiveBits/(Pixel*Frame) : 0.231Stream size : 7.29 GiB (87%)
Audio #1ID : 5112 (0x13F8)Menu ID : 10302 (0x283E)Format : MPEG AudioFormat version : Version 1Format profile : Layer 2Codec ID : 3Duration : 1h 38mnBit rate mode : ConstantBit rate : 192 KbpsChannel(s) : 2 channelsSampling rate : 48.0 KHzCompression mode : LossyDelay relative to video : 86msStream size : 135 MiB (2%)Language : German
Audio #2ID : 5113 (0x13F9)Menu ID : 10302 (0x283E)Format : MPEG AudioFormat version : Version 1Format profile : Layer 2Codec ID : 3Duration : 1h 38mnBit rate mode : ConstantBit rate : 192 KbpsChannel(s) : 2 channelsSampling rate : 48.0 KHzCompression mode : LossyDelay relative to video : 86msStream size : 135 MiB (2%)Language : French
Audio #3ID : 5116 (0x13FC)Menu ID : 10302 (0x283E)Format : AC-3Format/Info : Audio Coding 3Mode extension : CM (complete main)Format settings, Endianness : BigCodec ID : 6Duration : 1h 38mnBit rate mode : ConstantBit rate : 448 KbpsChannel(s) : 6 channelsChannel positions : Front: L C R, Side: L R, LFESampling rate : 48.0 KHzBit depth : 16 bitsCompression mode : LossyDelay relative to video : 114msStream size : 315 MiB (4%)Language : Multiple languages
Audio #4ID : 5117 (0x13FD)Menu ID : 10302 (0x283E)Format : MPEG AudioFormat version : Version 1Format profile : Layer 2Codec ID : 3Duration : 1h 38mnBit rate mode : ConstantBit rate : 192 KbpsChannel(s) : 2 channelsSampling rate : 48.0 KHzCompression mode : LossyStream size : 135 MiB (2%)
Мои раздачи ~ classical music ~ HDTV 720p">

Скриншоты Мои раздачи ~ classical music ~ HDTV 720p


Sommernachtskonzert Schönbrunn 2014 (Wiener Philharmoniker, Christoph Eschenbach)
Ludwig van Beethoven - Symphony No. 4, Symphony No. 5 (Wiener Philharmoniker, Christian Thielemann)
Festkonzert zum 200. Geburtstag von Richard Wagner
Berliner Philharmoniker - Sol Gabetta & Sir Simon Rattle - Osterfestspielen 2014
Antonín Dvořák, Symphonie Nr. 9 (Symphonieorchester des Bayerischen Rundfunks, Rafael Kubelik) 1977
Berliner Philharmoniker (Gustavo Dudamel) - Waldbühne 2014
A Recital with Renée Fleming (Maciej Pikulski) - Musikverein Vienna 2013
Jean Sibelius - Aallottaret; Richard Strauss - Vier letzte Lieder; Ludwig van Beethoven - Symphony No. 7
Johannes Brahms - Triumphlied; Ludwig van Beethoven - Symphony No. 5; Felix Mendelssohn - Die erste Walpurgisnacht
Wynton Marsalis "All Rise" - MDR Musiksommer 2014
Рахманинов - Piano Concerto No. 2; Beethoven - Sinfonie No. 4 (WDR Sinfonieorchester Koln, Jukka-Pekka Saraste) 2014
Khatia Buniatishvili - Das Waldkonzert
Giuseppe Verdi - Nabucco (Wiener Staatsopernorchester, Fabio Luisi) 2001
Wolfgang Amadeus Mozart - Don Giovanni (Staatsorchester Stuttgart, Antony Hermus) 2012
Jules Massenet - Werther (Wiener Staatsopernorchester, Philippe Jordan) 2005
Franz Schubert - Fierrabras (Wiener Philharmoniker, Ingo Metzmacher) 2014
Jacques Offenbach - La Belle Hélène (Philharmoniker Hamburg, Gerrit Prießnitz) 2015
Classix goes Jazz - Jazz Open Stuttgart
Johannes Brahms - Ein deutsches Requiem (WDR Sinfonieorchester Koln, Jukka-Pekka Saraste) 2014
Leonard Bernstein; Shostakovich; Johannes Brahms (WDR Sinfonieorchester Koln, Jukka-Pekka Saraste)
Mozart!!! Symphonie KV 543; KV 550; KV 551 (Concentus Musicus Wien, Nikolaus Harnoncourt) styriarte 2014
Christmas in Vienna 2013 (ORF Radio-Symphonieorchester Wien, Erwin Ortner)
Gustav Mahler - Das Lied von der Erde (Orchestre de la Suisse Romande, Neeme Järvi) 2014
Horowitz in Moscow / Горовиц в Москве 1986
Geistliche Lieder mit Elīna Garanča
Si l'Opera-Comique m'était conté...
Antonín Dvořák, Symphonie Nr. 9 (Symphonieorchester des Bayerischen Rundfunks, Mariss Jansons) 2015
Robert Schumann, Sinfonie Nr. 1 (Die Deutsche Kammerphilharmonie Bremen, Paavo Järvi) 2010
Concert d'ouverture de la Philharmonie de Paris
Une fête Baroque (Le Concert d'Astree)
Rheingau Musik Festival 2013 (hr-Sinfonieorchester, Paavo Järvi)
Rheingau Musik Festival 2014 (hr-Sinfonieorchester, Paavo Järvi)
Francis Poulenc - Gloria; Darius Millhaud - Le Boeuf sur le toit
Wolfgang Amadeus Mozart "Requiem" d-Moll KV 626
Alban Berg - Konzert für Violine und Orchester; Anton Bruckner - Symphonie Nr. 9
Händel-Gedächtniskonzert zum 250. Todestag von George Frideric Handel
Anders Hillborg "Eleven Gates" für Orchester; Jean Sibelius - Symphonie Nr. 5
Hollywood Sounds mit Daniel Hope
Edvard Grieg - Concerto for Piano and Orchestra; Frédéric Chopin - Nocturne; Johannes Brahms - Walzer
Angela Gheorghiu singt Puccini, Verdi ...
Wiener Osterkonzert 2015 - Hommage à Antonio Vivaldi
Isabelle Faust & Bernard Haitink - Osterfestspiele 2015
Frühling in Wien 2014 (Wiener Symphoniker, Simone Young)
Ludwig van Beethoven - Piano Concerto No. 5
Salzburg Festival 2013 (NHK Symphony Orchestra)
Sommernachtskonzert Schönbrunn 2015 (Wiener Philharmoniker, Zubin Mehta)
Shostakovich - Piano Concerto No. 1; Joseph Haydn - Piano Concerto
Born in Riga (Riga Festival Orchestra) 2014
Sommernachtsgala Grafenegg 2013 (Tonkünstler-Orchester, Niederösterreich, Karita Mattila)
Sommernachtsgala Grafenegg 2014 (Tonkünstler-Orchester, Niederösterreich, Juanjo Mena)
Mozartwoche 2015 "Bartabas in Salzburg" Mozart - Priestermarsch; Maurerische Trauermusik; Davide Penitente
John Williams Gala 2014 (Los Angeles Philharmonic, Gustavo Dudamel)
Berliner Philharmoniker (Sir Simon Rattle, Lang Lang) - Waldbühne 2015
Salzburger Festspielen 2015 (Wiener Philharmoniker, Riccardo Muti, Anne-Sophie Mutter)
The Vienna Philharmonic Orchestra in Scandinavia 2015
Brahms - Violinkonzert D-Dur op. 77 (Mariss Jansons, Frank Peter Zimmermann) 2015
La nuit Louis XIV de William Christie (Les Arts Florissants, Elodie Fonnard, Emilie Renard) 2015
Soirée baroque à la Philharmonie de Paris (Les Arts Florissants, William Christie) 2015
Рахманинов - Piano Concerto No. 2 (Filarmonica Teatro Regio Torino, Gianandrea Noseda, Khatia Buniatishvili) 2015
Gustav Mahler - Sinfonie Nr. 2 (Münchner Philharmoniker, Valery Gergiev) 2015
Beethoven - Klavierkonzert Nr. 3; Schumann - Klavierkonzert (Orchestra Ensemble Kanazawa, Michiyoshi Inoue, Aldo Ciccolini) 2011



Показать сообщения:    

Текущее время: 10-Дек 06:07

Часовой пояс: UTC + 3


Вы не можете начинать темы
Вы не можете отвечать на сообщения
Вы не можете редактировать свои сообщения
Вы не можете удалять свои сообщения
Вы не можете голосовать в опросах
Вы не можете прикреплять файлы к сообщениям
Вы не можете скачивать файлы