Ludwig van Beethoven - Symphony No. 4, Symphony No. 5, Egmont (Wiener Philharmoniker, Christian Thielemann) Beijing Concert 2013 [2013, Classical / Orchestral, HDTV 720p]


 

[Цитировать]

Beijing Concert 2013
Wiener Philharmoniker • Christian Thielemann

-
Год выпуска: 2013
Жанр: Classical / Orchestral
Продолжительность: 01:36:02
Режиссер: Xiaohong Ge
Исполнители:
Wiener Philharmoniker
Christian Thielemann - musikalische leitung
Треклист:
Ludwig van Beethoven
- Symphonie Nr. 4 in B-flat Op. 60
- Symphonie Nr. 5 in C Minor Op. 67
- Ouverture Egmont Op. 84
Доп. информация:
Konzert der Wiener Philharmoniker vom 3. November 2013 im National Centre for the Performing Arts in Peking
... перед началом концерта - небольшой рассказ о National Centre for the Performing Arts in Peking (немецкий язык) ...
Christian Thielemann from Wikipedia, the free encyclopedia
Wiener Philharmoniker Official Site
Wiener Philharmoniker from Wikipedia, the free encyclopedia
Венский филармонический оркестр материал из Википедии - свободной энциклопедии
Качество видео: HDTV 720p
Контейнер: TS
Видео кодек: H.264
Аудио кодек: AC3
Видео поток: 12.3 Mbps, 1280*720 (16:9), at 50.000 fps, AVC (High@L4.0) (CABAC / 6 Ref Frames)
Аудио поток: German, 256 Kbps, 48.0 KHz, 2 channels, MPEG Audio (Version 1) (Layer 2)
Аудио 2: 192 Kbps, 48.0 KHz, 2 channels, MPEG Audio (Version 1) (Layer 2)
Аудио 3: German, 448 Kbps, 48.0 KHz, 16 bits, 6 channels, AC-3
Аудио 4: Multiple languages, 192 Kbps, 48.0 KHz, 2 channels, MPEG Audio (Version 1) (Layer 2)
Источник: Digital Satellite > SkyStar HD2 (TechniSat) > raw data to HDD > ts

MediaInfo

GeneralID : 8900 (0x22C4)Complete name : C:\rutracker.org_HD\3sat HD_Wiener Philharmoniker Beijing Concert 2013.tsFormat : MPEG-TSFile size : 9.44 GiBDuration : 1h 36mnOverall bit rate mode : VariableOverall bit rate : 14.1 Mbps
VideoID : 6510 (0x196E)Menu ID : 11150 (0x2B8E)Format : AVCFormat/Info : Advanced Video CodecFormat profile : High@L4.0Format settings, CABAC : YesFormat settings, ReFrames : 6 framesCodec ID : 27Duration : 1h 36mnBit rate : 12.3 MbpsWidth : 1 280 pixelsHeight : 720 pixelsDisplay aspect ratio : 16:9Frame rate : 50.000 fpsColor space : YUVChroma subsampling : 4:2:0Bit depth : 8 bitsScan type : ProgressiveBits/(Pixel*Frame) : 0.266Stream size : 8.24 GiB (87%)Color primaries : BT.709Transfer characteristics : BT.709Matrix coefficients : BT.709
Audio #1ID : 6520 (0x1978)Menu ID : 11150 (0x2B8E)Format : MPEG AudioFormat version : Version 1Format profile : Layer 2Codec ID : 3Duration : 1h 36mnBit rate mode : ConstantBit rate : 256 KbpsChannel(s) : 2 channelsSampling rate : 48.0 KHzCompression mode : LossyDelay relative to video : 49msStream size : 176 MiB (2%)Language : German
Audio #2ID : 6521 (0x1979)Menu ID : 11150 (0x2B8E)Format : MPEG AudioFormat version : Version 1Format profile : Layer 2Codec ID : 3Duration : 1h 36mnBit rate mode : ConstantBit rate : 192 KbpsChannel(s) : 2 channelsSampling rate : 48.0 KHzCompression mode : LossyDelay relative to video : 49msStream size : 132 MiB (1%)
Audio #3ID : 6522 (0x197A)Menu ID : 11150 (0x2B8E)Format : AC-3Format/Info : Audio Coding 3Mode extension : CM (complete main)Format settings, Endianness : BigCodec ID : 6Duration : 1h 36mnBit rate mode : ConstantBit rate : 448 KbpsChannel(s) : 6 channelsChannel positions : Front: L C R, Side: L R, LFESampling rate : 48.0 KHzBit depth : 16 bitsCompression mode : LossyDelay relative to video : 107msStream size : 308 MiB (3%)Language : German
Audio #4ID : 6523 (0x197B)Menu ID : 11150 (0x2B8E)Format : MPEG AudioFormat version : Version 1Format profile : Layer 2Codec ID : 3Duration : 1h 36mnBit rate mode : ConstantBit rate : 192 KbpsChannel(s) : 2 channelsSampling rate : 48.0 KHzCompression mode : LossyDelay relative to video : 89msStream size : 132 MiB (1%)Language : Multiple languages
... info ...">

Скриншоты ... info ...


Es war eine musikalische Tour de Force: Dirigent Christian Thielemann spielte von 2008 bis 2010 zusammen mit den Wiener Philharmonikern im Goldenen Saal des Musikvereinsgebäudes in Wien alle Symphonien Ludwig van Beethovens ein. Die Musikwelt hat Thielemanns Mammut-Unternehmen mit Begeisterung aufgenommen - gab es doch erst sehr wenige zyklische Aufführungen aller zehn Symphonien. Auch über die Umsetzung des Projekts waren Musikliebhaber hocherfreut. Von Beginn an war geplant, die Symphonien in diversen Metropolen aufzuführen. Peking war mit seinen außergewöhnlichen Opern- und Konzerthäusern geradezu prädestiniert.
3sat zeigt das Konzert der Wiener Philharmoniker vom 3. November 2013 im National Centre for the Performing Arts in Peking, wo das Orchester Beethovens Symphonien Nr. 4 und 5 interpretiert.
~ 3sat.de



Показать сообщения:    

Текущее время: 10-Дек 06:09

Часовой пояс: UTC + 3


Вы не можете начинать темы
Вы не можете отвечать на сообщения
Вы не можете редактировать свои сообщения
Вы не можете удалять свои сообщения
Вы не можете голосовать в опросах
Вы не можете прикреплять файлы к сообщениям
Вы не можете скачивать файлы