Sommernachtskonzert Schönbrunn (Schonbrunn) 2014 (Berlioz, Liszt, Strauss, Mozart) (Wiener Philharmoniker, Christoph Eschenbach, Lang Lang) [2014, Classical / Orchestral / Open-Air-Konzert, HDTV 720p]


 

[Цитировать]

Sommernachtskonzert Schönbrunn 2014
Wiener Philharmoniker • Christoph Eschenbach

-
Год выпуска: 2014
Жанр: Classical / Orchestral / Open-Air-Konzert
Продолжительность: 01:41:32
Режиссер: Henning Kasten
Исполнители:
Lang Lang - piano
Wiener Philharmoniker
Christoph Eschenbach - dirigent
Треклист:
Hector Berlioz - Le carnival romain. Ouvertüre caractéristique
Franz Liszt - Mazeppa. Symhonische Dichtung
Richard Strauss - Burleske für Klavier und Orchester
Wolfgang Amadeus Mozart - Türkischer Marsch
Hector Berlioz - Ouvertüre Oper "Benvenuto Cellini"
Richard Strauss - Till Eulenspiegels lustige Streiche
Johann Strauß Sohn - Wiener Blut, Walzer
Johann Strauß Sohn - Furioso-Polka
Доп. информация:
Sommernachtskonzert Schönbrunn 2014, Schlosspark Schönbrunn, Wien, Österreich
Sommernachtskonzert Schönbrunn 2014 3sat.de
Christoph Eschenbach from Wikipedia, the free encyclopedia
Wiener Philharmoniker Official Site
Wiener Philharmoniker from Wikipedia, the free encyclopedia
Венский филармонический оркестр материал из Википедии - свободной энциклопедии
Schönbrunn Palace from Wikipedia, the free encyclopedia
Качество видео: HDTV 720p
Контейнер: TS
Видео кодек: H.264
Аудио кодек: AC3
Видео поток: 12.3 Mbps, 1280*720 (16:9), at 50.000 fps, AVC (High@L4.0) (CABAC / 6 Ref Frames)
Аудио поток: German, 256 Kbps, 48.0 KHz, 2 channels, MPEG Audio (Version 1) (Layer 2)
Аудио 2: 192 Kbps, 48.0 KHz, 2 channels, MPEG Audio (Version 1) (Layer 2)
Аудио 3: German, 448 Kbps, 48.0 KHz, 16 bits, 5 channels, AC-3
Аудио 4: Multiple languages, 192 Kbps, 48.0 KHz, 2 channels, MPEG Audio (Version 1) (Layer 2)
Источник: Digital Satellite > SkyStar HD2 (TechniSat) > raw data to HDD > ts

MediaInfo

GeneralID : 8900 (0x22C4)Complete name : C:\rutracker.org_HD\3sat HD_Sommernachtskonzert Schonbrunn 2014.tsFormat : MPEG-TSFile size : 9.97 GiBDuration : 1h 41mnOverall bit rate mode : VariableOverall bit rate : 14.1 Mbps
VideoID : 6510 (0x196E)Menu ID : 11150 (0x2B8E)Format : AVCFormat/Info : Advanced Video CodecFormat profile : High@L4.0Format settings, CABAC : YesFormat settings, ReFrames : 6 framesFormat settings, GOP : M=4, N=29Codec ID : 27Duration : 1h 41mnBit rate : 12.3 MbpsWidth : 1 280 pixelsHeight : 720 pixelsDisplay aspect ratio : 16:9Frame rate : 50.000 fpsColor space : YUVChroma subsampling : 4:2:0Bit depth : 8 bitsScan type : ProgressiveBits/(Pixel*Frame) : 0.266Stream size : 8.69 GiB (87%)Color primaries : BT.709Transfer characteristics : BT.709Matrix coefficients : BT.709
Audio #1ID : 6520 (0x1978)Menu ID : 11150 (0x2B8E)Format : MPEG AudioFormat version : Version 1Format profile : Layer 2Codec ID : 3Duration : 1h 41mnBit rate mode : ConstantBit rate : 256 KbpsChannel(s) : 2 channelsSampling rate : 48.0 KHzCompression mode : LossyDelay relative to video : -510msStream size : 186 MiB (2%)Language : German
Audio #2ID : 6521 (0x1979)Menu ID : 11150 (0x2B8E)Format : MPEG AudioFormat version : Version 1Format profile : Layer 2Codec ID : 3Duration : 1h 41mnBit rate mode : ConstantBit rate : 192 KbpsChannel(s) : 2 channelsSampling rate : 48.0 KHzCompression mode : LossyDelay relative to video : -510msStream size : 139 MiB (1%)
Audio #3ID : 6522 (0x197A)Menu ID : 11150 (0x2B8E)Format : AC-3Format/Info : Audio Coding 3Mode extension : CM (complete main)Format settings, Endianness : BigCodec ID : 6Duration : 1h 41mnBit rate mode : ConstantBit rate : 448 KbpsChannel(s) : 5 channelsChannel positions : Front: L C R, Side: L RSampling rate : 48.0 KHzBit depth : 16 bitsCompression mode : LossyDelay relative to video : -481msStream size : 325 MiB (3%)Language : German
Audio #4ID : 6523 (0x197B)Menu ID : 11150 (0x2B8E)Format : MPEG AudioFormat version : Version 1Format profile : Layer 2Codec ID : 3Duration : 1h 41mnBit rate mode : ConstantBit rate : 192 KbpsChannel(s) : 2 channelsSampling rate : 48.0 KHzCompression mode : LossyDelay relative to video : -550msStream size : 139 MiB (1%)Language : Multiple languages
... info ...">

Скриншоты ... info ...


Sommernachtskonzert Schönbrunn 2014
Ein ganz besonderes Open-Air-Konzert findet an diesem Abend im barocken Ambiente des Schönbrunner Schlossparks statt. Einen stimmungsvolleren Rahmen als die prächtige Kulisse des Schönbrunner Schlosses und seiner barocken Parkanlage, die zum UNESCO-Weltkulturerbe zählt, könnte man sich wohl kaum vorstellen.
Die Wiener Philharmoniker bieten bei freiem Eintritt stimmungsvolle Musik unter der Leitung des weltberühmten Dirigenten Christoph Eschenbach.
Der hoch geschätzte Gastdirigent vieler großen Orchester und Opernhäuser der Welt hat seit September 2010 die doppelte Leitung des John F. Kennedy Center for the Performing Arts sowie des National Symphony Orchestra in Washington D.C. Seit seiner Berufung im Jahre 2008 hat er eine Schlüsselrolle bei der Planung der Spielzeiten, der internationalen Festivals und besonderen Projekte für diese beiden renommierten Institutionen.
~ 3sat.de



Показать сообщения:    

Текущее время: 03-Дек 14:37

Часовой пояс: UTC + 3


Вы не можете начинать темы
Вы не можете отвечать на сообщения
Вы не можете редактировать свои сообщения
Вы не можете удалять свои сообщения
Вы не можете голосовать в опросах
Вы не можете прикреплять файлы к сообщениям
Вы не можете скачивать файлы