Arena di Verona 2014 - Lo spettacolo sta per iniziare [2014, Classical, Opera Pop, Musical, HDTV 1080i]


 

[Цитировать]

- --Жанр : Classical, Opera Pop, Musical
Год выпуска : 1 июня 2014
Страна : Италия
Продолжительность : 02:27:49
Производитель: Rai 1 HD
Качество : HDTV 1080i
Формат : TS
Релизер : Lotos2007
Видео: MPEG4 Video (H264) 1920x1080 25fps 9626 Kbps
Аудио: Dolby AC3 48KHz 448 Kbps (stereo)

Оркестр: Оркестр Арена ди Верона п/у Юлиана Ковачёва
Хор и балет: хоровая и балетная труппа Арена ди Верона
Ведущая: Антонелла Клеричи
Режиссер: Серджо Колабона
Особая благодарность Lotos2007 за исходник концерта!
--
Пятый ежегодный фестиваль оперной музыки "Lo spettacolo sta per iniziare" на престижной Арена ди Верона. На сцене прозвучат самые известные арии из итальянских опер, а также гостями фестиваля будут Витторио Григоло, Массимо Раниери , Анастейша и трио "IL VOLO", Тед Нили из мюзикла "Иисус Христос - Суперзвезда", Риккардо Коччанте и его мюзикл "Нотр Дам де Пари" исполненный на 6-ти языках, включая на русском. Вторая часть фестиваля - отбор новых оперных голосов для Арены. За право выступать поборятся четверо молодых теноров, исполняя арии из "Тоски" и "Риголетто". Концерт ведет популярная итальянская телеведущая Антонелла Клеричи.--
1 отделение
01. Отрывок из оперы «Кармен» (муз. Жорж Бизе)
## Антонелла Клеричи приветствует зрителей
02. Увертюра из оперы «Кармен» (муз. Жорж Бизе)
03. «Perdere l'amore»песня-победитель фестиваля «Sanremo 1988» (муз. M. Marrocchi, G. Artegiani), исп. Massimo RANIERI
04. «Un bel dì vedremo»из оперы «Madama Butterfly» (муз. Джакомо Пуччини)
## Антонелла Клеричи рассказывает историю создания мюзикла "Иисус Христос - Суперзвезда"
05. «Gethsemane (I Only Want to Say)»из мюзикла «Jesus Christ Superstar» (муз. Э.Л. Уэббера), исп. Ted NEELEY
06. «Io che non vivo (senza te)»из фестиваля «Sanremo 1965» (муз. П. Донаджо), исп. IL VOLO и Anastacia
07. «'O sole mio»неаполитанская песня (муз. Э. ди Капуа), исп. IL VOLO и Anastacia
08. «Stupid Little Things» — (муз. Л. Биянканиелло), исп. Anastacia
09. «Una furtiva lacrima»из оперы «L'elisir d'amore» (муз. Г. Доницетти), исп. Vittorio GRIGOLO
## Лауреат Нобелевской премии по литературе Дарио ФО рассказывает о своей новой театральной работе
10. «Casta Diva»из оперы «Norma» (муз. Винченцо Беллини)
11. Сцены из современной версии оперы «Aida» (муз. Дж. Верди)
12. На сцене играет 16-летний скрипач-виртуоз Giovanni Andrea ZANON
13. «Le temps des cathédrales / Les sans-papiers / Bohémienne / Belle»из мюзикла «Notre Dame de Paris» (муз. Р. Коччанте), исп. труппа артистов из разных постановок на шести языках.
14. «Il tempo delle cattedrali» (акапелла) — из мюзикла «Notre Dame de Paris» (муз. Р. Коччанте), исп. Riccardo COCCIANTE, труппа артистов из разных постановок на шести языках.
2 отделение - Una voce per l'Arena
01. «E lucevan le stelle»из оперы «Tosca» (муз. Джакомо Пуччини), исп. Dario DI VIETRI
02. «E lucevan le stelle»из оперы «Tosca» (муз. Джакомо Пуччини), исп. Alessandro FANTONI
03. Сцены из оперы «Romeo e Giulietta» (муз. Шарль Гуно), исп. Vittorio GRIGOLO и другие
04. «La donna è mobile»из оперы «Rigoletto» (муз. Джузеппе Верди), исп. Raffaele ABETE
05. «La donna è mobile»из оперы «Rigoletto» (муз. Джузеппе Верди), исп. Jaeheui KWON
06. Сцены из балета «Лебединое озеро» (муз. Петр Чайковский)
## Оглашение двух победителей конкурса Una voce per l'Arena.
07. «Torna a Surriento»неаполитанская песня
(муз. Э. де Куртис), исп. Massimo RANIERI и Vittorio GRIGOLO--

MediaInfo

GeneralID : 0 (0x0)Complete name : D:\Arena di Verona 2014 - Lo spettacolo sta per iniziare (01.06.2014) (Rai 1 HD) [by Lotos2007].tsFormat : MPEG-TSFile size : 10.9 GiBDuration : 2h 27mnOverall bit rate mode : VariableOverall bit rate : 10.6 Mbps
VideoID : 512 (0x200)Menu ID : 1 (0x1)Format : AVCFormat/Info : Advanced Video CodecFormat profile : High@L4.0Format settings, CABAC : YesFormat settings, ReFrames : 4 framesCodec ID : 27Duration : 2h 27mnBit rate : 9 627 KbpsWidth : 1 920 pixelsHeight : 1 080 pixelsDisplay aspect ratio : 16:9Frame rate : 25.000 fpsStandard : ComponentColor space : YUVChroma subsampling : 4:2:0Bit depth : 8 bitsScan type : MBAFFBits/(Pixel*Frame) : 0.186Stream size : 9.94 GiB (91%)Color primaries : BT.709Transfer characteristics : BT.709Matrix coefficients : BT.709
AudioID : 513 (0x201)Menu ID : 1 (0x1)Format : AC-3Format/Info : Audio Coding 3Mode extension : CM (complete main)Format settings, Endianness : BigCodec ID : 129Duration : 2h 27mnBit rate mode : ConstantBit rate : 448 KbpsChannel(s) : 2 channelsChannel positions : Front: L RSampling rate : 48.0 KHzBit depth : 16 bitsCompression mode : LossyStream size : 474 MiB (4%)

-



Показать сообщения:    

Текущее время: 07-Дек 21:24

Часовой пояс: UTC + 3


Вы не можете начинать темы
Вы не можете отвечать на сообщения
Вы не можете редактировать свои сообщения
Вы не можете удалять свои сообщения
Вы не можете голосовать в опросах
Вы не можете прикреплять файлы к сообщениям
Вы не можете скачивать файлы