Bach - Messe h-moll / Mass in B minor / Messe en si mineur / Месса си-минор (Jordi Savall) Fontfroide / Фонфруад [2011, Sacred, HDTV 1080i] Mezzo HD


 

[Цитировать]

Johann Sebastian Bach - Messe h-moll, BWV 232
Год выпуска: 2011
Лейбл: coproduction
Bel Air Media
Alia Vox
Mezzo
France Télévisions
Страна-производитель: France
Жанр: Sacred
Продолжительность: 1:47:22
Язык: Latin
Réalisateur: Andy Sommer
Исполнители:
Céline Scheen (soprano)
Marianne Beate Kielland (alto)
Pascal Bertin (alto)
Makoto Sakurada (ténor)
Stephan Mac Leod (basse)
La Capella Reial de Catalunya
Le Concert des Nations
Jordi Savall (direction)
Описание:
Enregistré le 19 juilet 2011 à l'Abbaye de Fontfroide, Narbonne
Записано 19 июля 2011 в аббатстве Фонфруад, Нарбон
VIème édition du Festival "Musique et Histoire pour un Dialogue Interculturel"
Издание VI-го фестиваля "Музыка и история в межкультурном диалоге"
Качество видео: HDTVRip
Формат/Контейнер: TS
Видео кодек: H.264
Аудио кодек: AC3
Видео поток: AVC, 1920×1080i, 7500 Kbps, 25 fps
Аудио поток: AC3, 256 Kbps, 48.0 KHz, 2 channels

MediaInfo

General
ID : 1 (0x1)
Complete name : G:\Torrent\Bach - Messe h-moll (Savall).ts
Format : MPEG-TS
File size : 5.84 GiB
Duration : 1h 47mn
Overall bit rate mode : Variable
Overall bit rate : 7 781 Kbps
Maximum Overall bit rate : 35.5 Mbps
Video
ID : 4113 (0x1011)
Menu ID : 1 (0x1)
Format : AVC
Format/Info : Advanced Video Codec
Format profile : Main@L4.0
Format settings, CABAC : Yes
Format settings, ReFrames : 3 frames
Format settings, GOP : M=4, N=32
Codec ID : 27
Duration : 1h 47mn
Bit rate : 7 138 Kbps
Width : 1 920 pixels
Height : 1 080 pixels
Display aspect ratio : 16:9
Frame rate : 25.000 fps
Standard : Component
Color space : YUV
Chroma subsampling : 4:2:0
Bit depth : 8 bits
Scan type : Interlaced
Scan order : Top Field First
Bits/(Pixel*Frame) : 0.138
Stream size : 5.35 GiB (92%)
Color primaries : BT.709
Transfer characteristics : BT.709
Matrix coefficients : BT.709
Audio
ID : 4352 (0x1100)
Menu ID : 1 (0x1)
Format : AC-3
Format/Info : Audio Coding 3
Mode extension : CM (complete main)
Format settings, Endianness : Big
Codec ID : 129
Duration : 1h 47mn
Bit rate mode : Constant
Bit rate : 256 Kbps
Channel(s) : 2 channels
Channel positions : Front: L R
Sampling rate : 48.0 KHz
Bit depth : 16 bits
Compression mode : Lossy
Stream size : 197 MiB (3%)
Language : Latin

Скриншоты





Показать сообщения:    

Текущее время: 02-Дек 21:09

Часовой пояс: UTC + 3


Вы не можете начинать темы
Вы не можете отвечать на сообщения
Вы не можете редактировать свои сообщения
Вы не можете удалять свои сообщения
Вы не можете голосовать в опросах
Вы не можете прикреплять файлы к сообщениям
Вы не можете скачивать файлы