M.Ravel - Le Tombeau de Couperin, R.Schumann - Piano Concerto, B.Bartok - Concerto for Orchestra (Tonhalle-Orchester Zurich, Lionel Bringuier, Martin Helmchen) [2013, классика, HDTVRip]


 

[Цитировать]

M.Ravel - Le Tombeau de Couperin, R.Schumann - Piano Concerto, B.Bartok - Concerto for Orchestra (Tonhalle-Orchester Zurich, Lionel Bringuier, Martin Helmchen)
Год выпуска: 2013
Лейбл: Mezzo HD
Страна-производитель: Швейцария
Жанр: классика
Продолжительность: 01:39:36
Перевод: не требуется
Субтитры: нет
Дирижёр: Lionel Bringuier
Исполнители:
Tonhalle-Orchester Zurich
Lionel Bringuier - conductor
Martin Helmchen - piano

1. Maurice Ravel - Le Tombeau de Couperin
(Tonhalle-Orchester Zurich)
2. Robert Schumann - Piano Concerto in A minor, Op.54
(Tonhalle-Orchester Zurich & Martin Helmchen)
3. Bela Bartok - Concerto for Orchestra
(Tonhalle-Orchester Zurich)
Описание: From Tonhalle Zurich, 2013
Качество видео: HDTVRip
Формат/Контейнер: MPEG4
Видео кодек: H.264
Аудио кодек: AAC
Видео поток: 1920x1080 (16:9), 25.00 fps, AVC, 8981 Кбит, 0.172 bits/pixel
Аудио поток: 48.0 KHz, AAC-LC, 2 ch, stereo, 128-384 Kbps VBR

Отчёт MediaInfo

Полное имя : G:\DVD\Tonhalle-Orchester Zurich RSB (2013)\Tonhalle-Orchester Zurich RSB.mp4Формат : MPEG-4Профиль формата : Base Media / Version 2Идентификатор кодека : mp42Размер файла : 6,52 ГбайтПродолжительность : 1 ч. 39 м.Общий поток : 9369 Кбит/секДата кодирования : UTC 2013-11-15 05:12:28Дата пометки : UTC 2013-11-15 05:12:28
ВидеоИдентификатор : 2Формат : AVCФормат/Информация : Advanced Video CodecПрофиль формата : Main@L4.0Параметр CABAC формата : ДаПараметр ReFrames формата : 2 кадраИдентификатор кодека : avc1Идентификатор кодека/Информация : Advanced Video CodingПродолжительность : 1 ч. 39 м.Вид битрейта : ПеременныйБитрейт : 8981 Кбит/секМаксимальный битрейт : 9001 Кбит/секШирина : 1920 пикселейВысота : 1088 пикселейВысота оригинала : 1080 пикселейСоотношение сторон : 16:9Соотношение сторон в оригинале : 16:9Режим частоты кадров : ПостоянныйЧастота кадров : 25,000 кадров/секЧастота кадров в оригинале : 12,500 кадров/секЦветовое пространство : YUVСубдискретизация насыщенности : 4:2:0Битовая глубина : 8 битТип развёртки : ПрогрессивнаяБит/(Пиксели*Кадры) : 0.172Размер потока : 6,25 Гбайт (96%)Язык : EnglishДата кодирования : UTC 2013-11-15 05:12:28Дата пометки : UTC 2013-11-15 05:12:28
АудиоИдентификатор : 1Формат : AACФормат/Информация : Advanced Audio CodecПрофиль формата : LCИдентификатор кодека : 40Продолжительность : 1 ч. 39 м.Вид битрейта : ПостоянныйБитрейт : 384 Кбит/секНоминальный битрейт : 128 Кбит/секКаналы : 2 каналаРасположение каналов : Front: L RЧастота : 48,0 КГцМетод сжатия : С потерямиРазмер потока : 274 Мбайт (4%)Язык : EnglishДата кодирования : UTC 2013-11-15 05:12:28Дата пометки : UTC 2013-11-15 05:12:28



Показать сообщения:    

Текущее время: 09-Дек 22:26

Часовой пояс: UTC + 3


Вы не можете начинать темы
Вы не можете отвечать на сообщения
Вы не можете редактировать свои сообщения
Вы не можете удалять свои сообщения
Вы не можете голосовать в опросах
Вы не можете прикреплять файлы к сообщениям
Вы не можете скачивать файлы