Joseph Canteloube - Chants d'Auvergne, W-A. Mozart - Symphony No.39 K 543 (Verbier Festival Orchestra, Marc Minkowski, Anne Sofie Von Otter) [2010, классика, HDTVRip]


 

[Цитировать]

Joseph Canteloube - Chants d'Auvergne, W-A. Mozart - Symphony No.39 K 543 (Verbier Festival Orchestra, Marc Minkowski, Anne Sofie Von Otter)
Год выпуска: 2010
Лейбл: Mezzo HD
Страна-производитель: Фпанция
Жанр: классика
Продолжительность: 00:55:03
Субтитры: нет
Дирижёр: Marc Minkowski
Исполнители:
Verbier Festival Orchestra
Marc Minkowski (conductor)
Anne Sofie Von Otter (mezzo-soprano)

1. Joseph Canteloube - Chants d'Auvergne (excerpts)
(Verbier Festival Orchestra & Anne Sofie Von Otter)
2. W-A. Mozart - Symphony No.39 K 543
(Verbier Festival Orchestra)
Описание:
Verbier Festival Orchestra, Marc Minkowski, Anne Sofie Von Otter
directed by Jean-Pierre Loisil, filmed on 23 july 2010, Verbier Festival 2010
Качество видео: HDTVRip
Формат/Контейнер: MPEG4
Видео кодек: H.264
Аудио кодек: AAC
Видео поток: 1920x1080 (16:9), 25.00 fps, AVC, 8813 Кбит, 0.169 bits/pixel
Аудио поток: 48.0 KHz, AAC-LC, 2 ch, stereo, 128-384 Kbps VBR

Отчёт MediaInfo

Полное имя : G:\DVD\Verbier Festival Orchestra 2010\Verbier Festival Orchestra 2010.mp4Формат : MPEG-4Профиль формата : Base Media / Version 2Идентификатор кодека : mp42Размер файла : 3,54 ГбайтПродолжительность : 55 м.Общий поток : 9201 Кбит/секДата кодирования : UTC 2013-10-25 10:30:29Дата пометки : UTC 2013-10-25 10:30:29
ВидеоИдентификатор : 2Формат : AVCФормат/Информация : Advanced Video CodecПрофиль формата : Main@L4.0Параметр CABAC формата : ДаПараметр ReFrames формата : 2 кадраИдентификатор кодека : avc1Идентификатор кодека/Информация : Advanced Video CodingПродолжительность : 55 м.Вид битрейта : ПеременныйБитрейт : 8813 Кбит/секМаксимальный битрейт : 9001 Кбит/секШирина : 1920 пикселейВысота : 1088 пикселейВысота оригинала : 1080 пикселейСоотношение сторон : 16:9Соотношение сторон в оригинале : 16:9Режим частоты кадров : ПостоянныйЧастота кадров : 25,000 кадров/секЧастота кадров в оригинале : 12,500 кадров/секЦветовое пространство : YUVСубдискретизация насыщенности : 4:2:0Битовая глубина : 8 битТип развёртки : ПрогрессивнаяБит/(Пиксели*Кадры) : 0.169Размер потока : 3,39 Гбайт (96%)Язык : EnglishДата кодирования : UTC 2013-10-25 10:30:29Дата пометки : UTC 2013-10-25 10:30:29
АудиоИдентификатор : 1Формат : AACФормат/Информация : Advanced Audio CodecПрофиль формата : LCИдентификатор кодека : 40Продолжительность : 55 м.Вид битрейта : ПостоянныйБитрейт : 384 Кбит/секНоминальный битрейт : 128 Кбит/секКаналы : 2 каналаРасположение каналов : Front: L RЧастота : 48,0 КГцМетод сжатия : С потерямиРазмер потока : 151 Мбайт (4%)Язык : EnglishДата кодирования : UTC 2013-10-25 10:30:29Дата пометки : UTC 2013-10-25 10:30:29



Показать сообщения:    

Текущее время: 06-Дек 19:04

Часовой пояс: UTC + 3


Вы не можете начинать темы
Вы не можете отвечать на сообщения
Вы не можете редактировать свои сообщения
Вы не можете удалять свои сообщения
Вы не можете голосовать в опросах
Вы не можете прикреплять файлы к сообщениям
Вы не можете скачивать файлы