Beethoven - Violin concerto, Strauss - An Alpine Symphony (Orchestre de Paris, Andris Nelsons, Sergey Khachatryan) [2012, классика, HDTVRip]


 

[Цитировать]

Beethoven - Violin concerto, Strauss - An Alpine Symphony (Orchestre de Paris, Andris Nelsons, Sergey Khachatryan)
Год выпуска: 2012
Лейбл: Mezzo HD
Страна-производитель: Франция
Жанр: классика
Продолжительность: 01:44:21
Субтитры: нет
Дирижёр: Andris Nelsons
Исполнители:
Orchestre de Paris, Andris Nelsons - conductor
Sergey Khachatryan - solo violin
Philippe Aiche - violin
Live from la Salle Pleyel les 18 et 19 janiver 2012
= Треклист =
1. Ludwig van Beethoven - Violin and orchesta Concerto in D major, Op.61
(Bis: Johann Sebastian Bach - Sarabande, Partita in D minor for solo violin, BWV 1004)
2. Richard Strauss - An Alpine Symphony, Op.64
Качество видео: HDTVRip
Формат/Контейнер: MPEG4
Видео кодек: H.264
Аудио кодек: AAC
Видео поток: 1920x1080 (16:9), 25.00 fps, AVC, 8831 Кбит, 0.169 bits/pixel
Аудио поток: 48.0 KHz, AAC-LC, 2 ch, stereo, ~128 Kbps VBR

Отчёт MediaInfo

Полное имя : G:\DVD\Orchestre de Paris (2012)\Orchestre de Paris - Beethoven, Strauss.mp4Формат : MPEG-4Профиль формата : Base Media / Version 2Идентификатор кодека : mp42Размер файла : 6,72 ГбайтПродолжительность : 1 ч. 44 м.Общий поток : 9219 Кбит/секДата кодирования : UTC 2013-11-06 13:08:58Дата пометки : UTC 2013-11-06 13:08:58
ВидеоИдентификатор : 2Формат : AVCФормат/Информация : Advanced Video CodecПрофиль формата : Main@L4.0Параметр CABAC формата : ДаПараметр ReFrames формата : 2 кадраИдентификатор кодека : avc1Идентификатор кодека/Информация : Advanced Video CodingПродолжительность : 1 ч. 44 м.Вид битрейта : ПеременныйБитрейт : 8831 Кбит/секМаксимальный битрейт : 9001 Кбит/секШирина : 1920 пикселейВысота : 1088 пикселейВысота оригинала : 1080 пикселейСоотношение сторон : 16:9Соотношение сторон в оригинале : 16:9Режим частоты кадров : ПостоянныйЧастота кадров : 25,000 кадров/секЧастота кадров в оригинале : 12,500 кадров/секЦветовое пространство : YUVСубдискретизация насыщенности : 4:2:0Битовая глубина : 8 битТип развёртки : ПрогрессивнаяБит/(Пиксели*Кадры) : 0.169Размер потока : 6,44 Гбайт (96%)Язык : EnglishДата кодирования : UTC 2013-11-06 13:08:58Дата пометки : UTC 2013-11-06 13:08:58
АудиоИдентификатор : 1Формат : AACФормат/Информация : Advanced Audio CodecПрофиль формата : LCИдентификатор кодека : 40Продолжительность : 1 ч. 44 м.Вид битрейта : ПостоянныйБитрейт : 384 Кбит/секНоминальный битрейт : 128 Кбит/секКаналы : 2 каналаРасположение каналов : Front: L RЧастота : 48,0 КГцМетод сжатия : С потерямиРазмер потока : 286 Мбайт (4%)Язык : EnglishДата кодирования : UTC 2013-11-06 13:08:58Дата пометки : UTC 2013-11-06 13:08:58



Показать сообщения:    

Текущее время: 08-Дек 03:12

Часовой пояс: UTC + 3


Вы не можете начинать темы
Вы не можете отвечать на сообщения
Вы не можете редактировать свои сообщения
Вы не можете удалять свои сообщения
Вы не можете голосовать в опросах
Вы не можете прикреплять файлы к сообщениям
Вы не можете скачивать файлы