Rameau, Handel, Dvorak, Ravel, Brahms, Straub - Gala From Berlin 2012 (Berliner Philharmoniker, Cecilia Bartoli, Sir Simon Rattle) [2012, классика, HDTVRip]


 

[Цитировать]

Rameau, Handel, Dvorak, Ravel, Brahms, Straub - Gala From Berlin 2012 (Berliner Philharmoniker, Cecilia Bartoli, Sir Simon Rattle)
Год выпуска: 2012
Лейбл: Mezzo HD
Страна-производитель: Германия
Жанр: классика
Продолжительность: 01:28:52
Субтитры: нет
Дирижёр: Sir Simon Rattle
Исполнители:
Berliner Philharmoniker, Cecilia Bartoli, Sir Simon Rattle.
Cecilia Bartoli (mezzo-soprano)
= Треклист =
=1. Jean-Philippe Rameau - Dance Suite from Les Boreades
=2. George Frideric Handel - Lotario: aria of Adelaide (Cecilia Bartoli)
=3. George Frideric Handel - Teseo: reaitative and aria of Agilea (Cecilia Bartoli)
=4. Jean-Philippe Rameau - Gavotte & Entr'acte from Les Boreades
=5. George Frideric Handel - Il Trionfo Del Tempo E Del Disinganno (Cecilia Bartoli)
=6. George Frideric Handel - Amadigi Di Gaula: aria of Melissa (Cecilia Bartoli)
=7. Antonin Dvorak - Slavonic Dance C major, op.46 No.1
=8. Maurice Ravel - Daphnis et Chloe, Suite No.2
=9. Johannes Brahms - Hungarian Dance No.1 G minor
10. Johann Straub - Eljen a Magyar, op.332
Описание:
Чечилия Бартоли и Берлинский Филармонический Оркестр под управлением сэра Саймона Рэттла в Гала-концерте перед Рождеством 2012.
Качество видео: HDTVRip
Формат/Контейнер: MPEG4
Видео кодек: H.264
Аудио кодек: AAC
Видео поток: 1920x1080 (16:9), 25.00 fps, AVC, 9066 Кбит, 0.174 bits/pixel
Аудио поток: 48.0 KHz, AAC-LC, 2 ch, stereo, ~128 Kbps VBR

Отчёт MediaInfo

Полное имя : G:\DVD\Gala From Berlin 2012\Berliner Philharmoniker, Cecilia Bartoli, Sir Simon Rattle.mp4Формат : MPEG-4Профиль формата : Base Media / Version 2Идентификатор кодека : mp42Размер файла : 5,87 ГбайтПродолжительность : 1 ч. 28 м.Общий поток : 9454 Кбит/секДата кодирования : UTC 2013-11-02 07:30:43Дата пометки : UTC 2013-11-02 07:30:43
ВидеоИдентификатор : 2Формат : AVCФормат/Информация : Advanced Video CodecПрофиль формата : Main@L4.0Параметр CABAC формата : ДаПараметр ReFrames формата : 2 кадраИдентификатор кодека : avc1Идентификатор кодека/Информация : Advanced Video CodingПродолжительность : 1 ч. 28 м.Вид битрейта : ПеременныйБитрейт : 9066 Кбит/секМаксимальный битрейт : 9001 Кбит/секШирина : 1920 пикселейВысота : 1088 пикселейВысота оригинала : 1080 пикселейСоотношение сторон : 16:9Соотношение сторон в оригинале : 16:9Режим частоты кадров : ПостоянныйЧастота кадров : 25,000 кадров/секЧастота кадров в оригинале : 12,500 кадров/секЦветовое пространство : YUVСубдискретизация насыщенности : 4:2:0Битовая глубина : 8 битТип развёртки : ПрогрессивнаяБит/(Пиксели*Кадры) : 0.174Размер потока : 5,63 Гбайт (96%)Язык : EnglishДата кодирования : UTC 2013-11-02 07:30:43Дата пометки : UTC 2013-11-02 07:30:43
АудиоИдентификатор : 1Формат : AACФормат/Информация : Advanced Audio CodecПрофиль формата : LCИдентификатор кодека : 40Продолжительность : 1 ч. 28 м.Вид битрейта : ПостоянныйБитрейт : 384 Кбит/секНоминальный битрейт : 128 Кбит/секКаналы : 2 каналаРасположение каналов : Front: L RЧастота : 48,0 КГцМетод сжатия : С потерямиРазмер потока : 244 Мбайт (4%)Язык : EnglishДата кодирования : UTC 2013-11-02 07:30:43Дата пометки : UTC 2013-11-02 07:30:43



Показать сообщения:    

Текущее время: 05-Дек 23:40

Часовой пояс: UTC + 3


Вы не можете начинать темы
Вы не можете отвечать на сообщения
Вы не можете редактировать свои сообщения
Вы не можете удалять свои сообщения
Вы не можете голосовать в опросах
Вы не можете прикреплять файлы к сообщениям
Вы не можете скачивать файлы