Bach: Heiden Heiland BWV 659/English Suite No.2 BWV 807, Chopin: Nocturnes Opus 15/Etuds Opus 25/Mazurka Opus 63, Schumann: Kreisieriana Opus 16/Kinderszenen Opus 15 (Nicholas Angelich piano) [2010, классика, HDTVRip]


 

[Цитировать]

Bach: Heiden Heiland BWV 659/English Suite No.2 BWV 807, Chopin: Nocturnes Opus 15/Etuds Opus 25/Mazurka Opus 63, Schumann: Kreisieriana Opus 16/Kinderszenen Opus 15 (Nicholas Angelich piano)
Год выпуска: 2010
Лейбл: Mezzo HD
Страна-производитель: Франция
Жанр: классика
Продолжительность: 01:36:50
Субтитры: нет
Исполнители:
Nicholas Angelich piano
filmed on 31 july 2010 during the 17th edition of the Verbier Festival
= Треклист =
1. Bach/Busoni - Nun komm' der Heiden Heiland BWV 659
2. Bach - English Suite No.2 BWV 807
3. Chopin - Nocturnes Opus 15 No.1 & Opus 55
4. Chopin - Etuds Opus 25 No.1 & Opus 10 No.10, No.11, No.12
5. Schumann - Kreisieriana Opus 16
6. Chopin - Mazurka Opus 63 No.2
7. Schumann - Kinderszenen Opus 15 No.7 & No.1
Качество видео: HDTVRip
Формат/Контейнер: MPEG4
Видео кодек: H.264
Аудио кодек: AAC
Видео поток: 1920x1080 (16:9), 25.00 fps, AVC, 8840 Кбит, 0.169 bits/pixel
Аудио поток: 48.0 KHz, AAC-LC, 2 ch, stereo, ~128 Kbps VBR

Отчёт MediaInfo

Полное имя : G:\DVD\Nicholas Angelich - VF (2010)\Nicholas Angelich - Bach-Chopin-Schumann.mp4Формат : MPEG-4Профиль формата : Base Media / Version 2Идентификатор кодека : mp42Размер файла : 6,24 ГбайтПродолжительность : 1 ч. 36 м.Общий поток : 9220 Кбит/секДата кодирования : UTC 2013-10-25 08:52:58Дата пометки : UTC 2013-10-25 08:52:58
ВидеоИдентификатор : 2Формат : AVCФормат/Информация : Advanced Video CodecПрофиль формата : Main@L4.0Параметр CABAC формата : ДаПараметр ReFrames формата : 2 кадраИдентификатор кодека : avc1Идентификатор кодека/Информация : Advanced Video CodingПродолжительность : 1 ч. 36 м.Вид битрейта : ПеременныйБитрейт : 8840 Кбит/секМаксимальный битрейт : 9001 Кбит/секШирина : 1920 пикселейВысота : 1088 пикселейВысота оригинала : 1080 пикселейСоотношение сторон : 16:9Соотношение сторон в оригинале : 16:9Режим частоты кадров : ПостоянныйЧастота кадров : 25,000 кадров/секЧастота кадров в оригинале : 12,500 кадров/секЦветовое пространство : YUVСубдискретизация насыщенности : 4:2:0Битовая глубина : 8 битТип развёртки : ПрогрессивнаяБит/(Пиксели*Кадры) : 0.169Размер потока : 5,98 Гбайт (96%)Язык : EnglishДата кодирования : UTC 2013-10-25 08:52:58Дата пометки : UTC 2013-10-25 08:52:58
АудиоИдентификатор : 1Формат : AACФормат/Информация : Advanced Audio CodecПрофиль формата : LCИдентификатор кодека : 40Продолжительность : 1 ч. 36 м.Вид битрейта : ПостоянныйБитрейт : 384 Кбит/секНоминальный битрейт : 128 Кбит/секКаналы : 2 каналаРасположение каналов : Front: L RЧастота : 48,0 КГцМетод сжатия : С потерямиРазмер потока : 261 Мбайт (4%)Язык : EnglishДата кодирования : UTC 2013-10-25 08:52:58Дата пометки : UTC 2013-10-25 08:52:58



Показать сообщения:    

Текущее время: 11-Дек 14:59

Часовой пояс: UTC + 3


Вы не можете начинать темы
Вы не можете отвечать на сообщения
Вы не можете редактировать свои сообщения
Вы не можете удалять свои сообщения
Вы не можете голосовать в опросах
Вы не можете прикреплять файлы к сообщениям
Вы не можете скачивать файлы