Johannes Brahms - Symphonie Nr.2 D-dur opus 73 (Symphonie-Orchester des Bayerischen Rundfunks, Mariss Jansons) [2012, классика, HDTVRip]


 

[Цитировать]

Johannes Brahms - Symphonie Nr.2 D-dur opus 73 (Symphonie-Orchester des Bayerischen Rundfunks, Mariss Jansons)
Год выпуска: 2012
Лейбл: Bayerischer Rundfunk
Страна-производитель: Германия
Жанр: классика
Продолжительность: 00:41:57
Субтитры: нет
Дирижёр: Mariss Jansons
Исполнители:
Symphonie-Orchester des Bayerischen Rundfunks, Mariss Jansons
Lucerne Festival Zu Ostern 2012 aus dem Konzertsaal des KKL Luzern
= Треклист =
Johannes Brahms - Symphonie Nr.2 D-dur opus 73
Качество видео: HDTVRip
Формат/Контейнер: MPEG4
Видео кодек: H.264
Аудио кодек: AAC
Видео поток: 1920x1080 (16:9), 25.00 fps, AVC, 8876 Кбит, 0.170 bits/pixel
Аудио поток: 48.0 KHz, AAC-LC, 2 ch, stereo, ~128 Kbps VBR

Отчёт MediaInfo

Полное имя : G:\DVD\Johannes Brahms - Symphonie N 2 (2012)\Johannes Brahms - Symphonie Nr 2.mp4Формат : MPEG-4Профиль формата : Base Media / Version 2Идентификатор кодека : mp42Размер файла : 2,71 ГбайтПродолжительность : 41 м.Общий поток : 9262 Кбит/секДата кодирования : UTC 2013-10-20 03:47:34Дата пометки : UTC 2013-10-20 03:47:34
ВидеоИдентификатор : 2Формат : AVCФормат/Информация : Advanced Video CodecПрофиль формата : Main@L4.0Параметр CABAC формата : ДаПараметр ReFrames формата : 2 кадраИдентификатор кодека : avc1Идентификатор кодека/Информация : Advanced Video CodingПродолжительность : 41 м.Вид битрейта : ПеременныйБитрейт : 8876 Кбит/секМаксимальный битрейт : 9001 Кбит/секШирина : 1920 пикселейВысота : 1088 пикселейВысота оригинала : 1080 пикселейСоотношение сторон : 16:9Соотношение сторон в оригинале : 16:9Режим частоты кадров : ПостоянныйЧастота кадров : 25,000 кадров/секЧастота кадров в оригинале : 12,500 кадров/секЦветовое пространство : YUVСубдискретизация насыщенности : 4:2:0Битовая глубина : 8 битТип развёртки : ПрогрессивнаяБит/(Пиксели*Кадры) : 0.170Размер потока : 2,60 Гбайт (96%)Язык : EnglishДата кодирования : UTC 2013-10-20 03:47:34Дата пометки : UTC 2013-10-20 03:47:34
АудиоИдентификатор : 1Формат : AACФормат/Информация : Advanced Audio CodecПрофиль формата : LCИдентификатор кодека : 40Продолжительность : 41 м.Вид битрейта : ПостоянныйБитрейт : 384 Кбит/секНоминальный битрейт : 128 Кбит/секКаналы : 2 каналаРасположение каналов : Front: L RЧастота : 48,0 КГцМетод сжатия : С потерямиРазмер потока : 115 Мбайт (4%)Язык : EnglishДата кодирования : UTC 2013-10-20 03:47:34Дата пометки : UTC 2013-10-20 03:47:34



Показать сообщения:    

Текущее время: 04-Дек 15:18

Часовой пояс: UTC + 3


Вы не можете начинать темы
Вы не можете отвечать на сообщения
Вы не можете редактировать свои сообщения
Вы не можете удалять свои сообщения
Вы не можете голосовать в опросах
Вы не можете прикреплять файлы к сообщениям
Вы не можете скачивать файлы