Ludwig van Beethoven - Konzert fur Klavier und Orchester Nr.3 c-moll opus 37 (Aus der Philharmonie im Gasteig Munchen, Mariss Jansons) [2011, классика, HDTVRip]


 

[Цитировать]

Ludwig van Beethoven - Konzert fur Klavier und Orchester Nr.3 c-moll opus 37 (Aus der Philharmonie im Gasteig Munchen, Mariss Jansons)
Год выпуска: 2011
Лейбл: Bayerischer Rundfunk
Страна-производитель: Германия
Жанр: классика
Продолжительность: 00:44:57
Субтитры: нет
Дирижёр: Mariss Jansons
Исполнители:
Aus der Philharmonie im Gasteig Munchen, Mariss Jansons
Mitsuko Uchida (klavier)
= Треклист =
Ludwig van Beethoven - Konzert fur Klavier und Orchester Nr.3 c-moll opus 37, 2011
Качество видео: HDTVRip
Формат/Контейнер: MPEG4
Видео кодек: H.264
Аудио кодек: AAC
Видео поток: 1920x1080 (16:9), 25.00 fps, AVC, 8979 Кбит, 0.172 bits/pixel
Аудио поток: 48.0 KHz, AAC-LC, 2 ch, stereo, ~128 Kbps VBR

Отчёт MediaInfo

Полное имя : G:\DVD\Ludwig van Beethoven - Konzert fur Klavier (2011)\Ludwig van Beethoven - Konzert fur Klavier.mp4Формат : MPEG-4Профиль формата : Base Media / Version 2Идентификатор кодека : mp42Размер файла : 2,94 ГбайтПродолжительность : 44 м.Общий поток : 9364 Кбит/секДата кодирования : UTC 2013-10-19 07:03:09Дата пометки : UTC 2013-10-19 07:03:09
ВидеоИдентификатор : 2Формат : AVCФормат/Информация : Advanced Video CodecПрофиль формата : Main@L4.0Параметр CABAC формата : ДаПараметр ReFrames формата : 2 кадраИдентификатор кодека : avc1Идентификатор кодека/Информация : Advanced Video CodingПродолжительность : 44 м.Вид битрейта : ПеременныйБитрейт : 8979 Кбит/секМаксимальный битрейт : 9001 Кбит/секШирина : 1920 пикселейВысота : 1088 пикселейВысота оригинала : 1080 пикселейСоотношение сторон : 16:9Соотношение сторон в оригинале : 16:9Режим частоты кадров : ПостоянныйЧастота кадров : 25,000 кадров/секЧастота кадров в оригинале : 12,500 кадров/секЦветовое пространство : YUVСубдискретизация насыщенности : 4:2:0Битовая глубина : 8 битТип развёртки : ПрогрессивнаяБит/(Пиксели*Кадры) : 0.172Размер потока : 2,82 Гбайт (96%)Язык : EnglishДата кодирования : UTC 2013-10-19 07:03:09Дата пометки : UTC 2013-10-19 07:03:09
АудиоИдентификатор : 1Формат : AACФормат/Информация : Advanced Audio CodecПрофиль формата : LCИдентификатор кодека : 40Продолжительность : 44 м.Вид битрейта : ПостоянныйБитрейт : 384 Кбит/секНоминальный битрейт : 128 Кбит/секКаналы : 2 каналаРасположение каналов : Front: L RЧастота : 48,0 КГцМетод сжатия : С потерямиРазмер потока : 123 Мбайт (4%)Язык : EnglishДата кодирования : UTC 2013-10-19 07:03:09Дата пометки : UTC 2013-10-19 07:03:09



Показать сообщения:    

Текущее время: 04-Дек 17:19

Часовой пояс: UTC + 3


Вы не можете начинать темы
Вы не можете отвечать на сообщения
Вы не можете редактировать свои сообщения
Вы не можете удалять свои сообщения
Вы не можете голосовать в опросах
Вы не можете прикреплять файлы к сообщениям
Вы не можете скачивать файлы