Leos Janacek - Glagolitische Messe (Chor und Symphonie-Orchester des Bayerischen Rundfunks chor. Peter Dijkstra, Mariss Jansonss) [2012, классика, HDTVRip]


 

[Цитировать]

Leos Janacek - Glagolitische Messe (Chor und Symphonie-Orchester des Bayerischen Rundfunks chor. Peter Dijkstra, Mariss Jansonss)
Год выпуска: 2012
Лейбл: Bayerischer Rundfunk
Страна-производитель: Германия
Жанр: классика
Продолжительность: 00:45:02
Субтитры: нет
Режиссер/Хореограф: Peter Dijkstra, Mariss Jansonss
Исполнители:
Chor und Symphonie-Orchester des Bayerischen Rundfunks chor. Peter Dijkstra, Mariss Jansonss
Solisten
Tatiana Monogarova (sopran)
Marina Prudenskaja (mezzosopran)
Ludovit Ludha (tenor)
Peter Mikulas (bass)
Iveta Apkalna (orgel)
Треклист:
Leos Janacek - Glagolitische Messe, fur Soli, Chor, Orgel und Orchester Fassung Letzter Hand (1928)
Качество видео: HDTVRip
Формат/Контейнер: MPEG4
Видео кодек: H.264
Аудио кодек: AAC
Видео поток: 1920x1080 (16:9), 25.00 fps, AVC, 8978 Кбит, 0.172 bits/pixel
Аудио поток: 48.0 KHz, AAC-LC, 2 ch, 128 Kbps VBR

Отчёт MediaInfo

Полное имя : G:\DVD\Leos Janacek - Glagolitische Messe (2012)\Leos Janacek - Glagolitische Messe.mp4Формат : MPEG-4Профиль формата : Base Media / Version 2Идентификатор кодека : mp42Размер файла : 2,95 ГбайтПродолжительность : 45 м.Общий поток : 9365 Кбит/секДата кодирования : UTC 2013-10-05 07:00:30Дата пометки : UTC 2013-10-05 07:00:30
ВидеоИдентификатор : 2Формат : AVCФормат/Информация : Advanced Video CodecПрофиль формата : Main@L4.0Параметр CABAC формата : ДаПараметр ReFrames формата : 2 кадраИдентификатор кодека : avc1Идентификатор кодека/Информация : Advanced Video CodingПродолжительность : 45 м.Вид битрейта : ПеременныйБитрейт : 8978 Кбит/секМаксимальный битрейт : 9001 Кбит/секШирина : 1920 пикселейВысота : 1088 пикселейВысота оригинала : 1080 пикселейСоотношение сторон : 16:9Соотношение сторон в оригинале : 16:9Режим частоты кадров : ПостоянныйЧастота кадров : 25,000 кадров/секЧастота кадров в оригинале : 12,500 кадров/секЦветовое пространство : YUVСубдискретизация насыщенности : 4:2:0Битовая глубина : 8 битТип развёртки : ПрогрессивнаяБит/(Пиксели*Кадры) : 0.172Размер потока : 2,82 Гбайт (96%)Язык : EnglishДата кодирования : UTC 2013-10-05 07:00:30Дата пометки : UTC 2013-10-05 07:00:30
АудиоИдентификатор : 1Формат : AACФормат/Информация : Advanced Audio CodecПрофиль формата : LCИдентификатор кодека : 40Продолжительность : 45 м.Вид битрейта : ПостоянныйБитрейт : 384 Кбит/секНоминальный битрейт : 128 Кбит/секКаналы : 2 каналаРасположение каналов : Front: L RЧастота : 48,0 КГцМетод сжатия : С потерямиРазмер потока : 123 Мбайт (4%)Язык : EnglishДата кодирования : UTC 2013-10-05 07:00:30Дата пометки : UTC 2013-10-05 07:00:30



Показать сообщения:    

Текущее время: 11-Дек 05:20

Часовой пояс: UTC + 3


Вы не можете начинать темы
Вы не можете отвечать на сообщения
Вы не можете редактировать свои сообщения
Вы не можете удалять свои сообщения
Вы не можете голосовать в опросах
Вы не можете прикреплять файлы к сообщениям
Вы не можете скачивать файлы