Richard Strauss - Ein Heldenleben, Symphonische Dichtung opus 40 (Aus der Philharmonie im Gasteig Munchen, Mariss Jansons) [2011, классика, HDTVRip]


 

[Цитировать]

Richard Strauss - Ein Heldenleben, Symphonische Dichtung opus 40 (Aus der Philharmonie im Gasteig Munchen, Mariss Jansons)
Год выпуска: 2011
Лейбл: Bayerischer Rundfunk
Страна-производитель: Германия
Жанр: классика
Продолжительность: 00:50:00
Субтитры: нет
Дирижёр: Mariss Jansons
Исполнители:
Aus der Philharmonie im Gasteig Munchen, Mariss Jansons
Anton Barachovsky (Solo-Violine)
Треклист:
Richard Strauss - Ein Heldenleben, Symphonische Dichtung opus 40
Качество видео: HDTVRip
Формат/Контейнер: MPEG4
Видео кодек: H.264
Аудио кодек: AAC
Видео поток: 1920x1080 (16:9), 25.00 fps, AVC, 9001 Кбит, 0.159 bits/pixel
Аудио поток: 48.0 KHz, AAC-LC, 2 ch, stereo, 128 Kbps VBR

Отчёт MediaInfo

Полное имя : G:\DVD\Richard Strauss - Ein Heldenleben (2011)\Richard Strauss - Ein Heldenleben.mp4Формат : MPEG-4Профиль формата : Base Media / Version 2Идентификатор кодека : mp42Размер файла : 3,29 ГбайтПродолжительность : 50 м.Общий поток : 9406 Кбит/секДата кодирования : UTC 2013-10-05 06:08:47Дата пометки : UTC 2013-10-05 06:08:47
ВидеоИдентификатор : 2Формат : AVCФормат/Информация : Advanced Video CodecПрофиль формата : Main@L4.0Параметр CABAC формата : ДаПараметр ReFrames формата : 2 кадраИдентификатор кодека : avc1Идентификатор кодека/Информация : Advanced Video CodingПродолжительность : 50 м.Вид битрейта : ПеременныйБитрейт : 9018 Кбит/секМаксимальный битрейт : 9001 Кбит/секШирина : 1920 пикселейВысота : 1088 пикселейВысота оригинала : 1080 пикселейСоотношение сторон : 16:9Соотношение сторон в оригинале : 16:9Режим частоты кадров : ПостоянныйЧастота кадров : 25,000 кадров/секЧастота кадров в оригинале : 12,500 кадров/секЦветовое пространство : YUVСубдискретизация насыщенности : 4:2:0Битовая глубина : 8 битТип развёртки : ПрогрессивнаяБит/(Пиксели*Кадры) : 0.173Размер потока : 3,15 Гбайт (96%)Язык : EnglishДата кодирования : UTC 2013-10-05 06:08:47Дата пометки : UTC 2013-10-05 06:08:47
АудиоИдентификатор : 1Формат : AACФормат/Информация : Advanced Audio CodecПрофиль формата : LCИдентификатор кодека : 40Продолжительность : 50 м.Вид битрейта : ПостоянныйБитрейт : 384 Кбит/секНоминальный битрейт : 128 Кбит/секКаналы : 2 каналаРасположение каналов : Front: L RЧастота : 48,0 КГцМетод сжатия : С потерямиРазмер потока : 137 Мбайт (4%)Язык : EnglishДата кодирования : UTC 2013-10-05 06:08:47Дата пометки : UTC 2013-10-05 06:08:47



Показать сообщения:    

Текущее время: 10-Дек 11:57

Часовой пояс: UTC + 3


Вы не можете начинать темы
Вы не можете отвечать на сообщения
Вы не можете редактировать свои сообщения
Вы не можете удалять свои сообщения
Вы не можете голосовать в опросах
Вы не можете прикреплять файлы к сообщениям
Вы не можете скачивать файлы