Schumann: La Schubertiade d\'Espace 2 - 2011, Christian Zacharias interprete Robert Schumann (L\'Orchestre de Chambre de Lausanne, Christian Zacharias) [2011, классика, HDTVRip]


 

[Цитировать]

Schumann: La Schubertiade d'Espace 2 - 2011, Christian Zacharias interprete Robert Schumann (L'Orchestre de Chambre de Lausanne, Christian Zacharias)
Год выпуска: 2011
Лейбл: Mezzo HD
Страна-производитель: Франция
Жанр: классика
Продолжительность: 01:27:12
Субтитры: нет
Дирижёр: Christian Zacharias
Исполнители:
L'Orchestre de Chambre de Lausanne, Christian Zacharias
Треклист:
1. Robert Schumann - Symphonie № 4 en re mineur, op. 120 (version 1851)
2. Robert Schumann - Introduction et Allegro appassionato en sol majeur pour piano et orchestre, op. 92
3. Robert Schumann - Symphonie № 1 en si bemol majeur, op. 38 (Printemps)
Качество видео: HDTVRip
Формат/Контейнер: MPEG4
Видео кодек: H.264
Аудио кодек: AC3
Видео поток: 1920x1080 (16:9), 25.00 fps, AVC, 8960 Кбит, 0.172 bits/pixel
Аудио поток: 48.0 KHz, AAC-LC, 2 ch, 128 Kbps VBR

Отчёт MediaInfo

Полное имя : G:\DVD\Christian Zacharias - La Schubertiade d'Espace 2 (2011)\Christian Zacharias - La Schubertiade d'Espace 2 - 2011.mp4Формат : MPEG-4Профиль формата : Base Media / Version 2Идентификатор кодека : mp42Размер файла : 5,69 ГбайтПродолжительность : 1 ч. 27 м.Общий поток : 9348 Кбит/секДата кодирования : UTC 2013-09-30 06:30:14Дата пометки : UTC 2013-09-30 06:30:14
ВидеоИдентификатор : 2Формат : AVCФормат/Информация : Advanced Video CodecПрофиль формата : Main@L4.0Параметр CABAC формата : ДаПараметр ReFrames формата : 2 кадраИдентификатор кодека : avc1Идентификатор кодека/Информация : Advanced Video CodingПродолжительность : 1 ч. 27 м.Вид битрейта : ПеременныйБитрейт : 8960 Кбит/секМаксимальный битрейт : 9001 Кбит/секШирина : 1920 пикселейВысота : 1088 пикселейВысота оригинала : 1080 пикселейСоотношение сторон : 16:9Соотношение сторон в оригинале : 16:9Режим частоты кадров : ПостоянныйЧастота кадров : 25,000 кадров/секЧастота кадров в оригинале : 12,500 кадров/секЦветовое пространство : YUVСубдискретизация насыщенности : 4:2:0Битовая глубина : 8 битТип развёртки : ПрогрессивнаяБит/(Пиксели*Кадры) : 0.172Размер потока : 5,46 Гбайт (96%)Язык : EnglishДата кодирования : UTC 2013-09-30 06:30:14Дата пометки : UTC 2013-09-30 06:30:14
АудиоИдентификатор : 1Формат : AACФормат/Информация : Advanced Audio CodecПрофиль формата : LCИдентификатор кодека : 40Продолжительность : 1 ч. 27 м.Вид битрейта : ПостоянныйБитрейт : 384 Кбит/секНоминальный битрейт : 128 Кбит/секКаналы : 2 каналаРасположение каналов : Front: L RЧастота : 48,0 КГцМетод сжатия : С потерямиРазмер потока : 239 Мбайт (4%)Язык : EnglishДата кодирования : UTC 2013-09-30 06:30:14Дата пометки : UTC 2013-09-30 06:30:14



Показать сообщения:    

Текущее время: 05-Дек 11:28

Часовой пояс: UTC + 3


Вы не можете начинать темы
Вы не можете отвечать на сообщения
Вы не можете редактировать свои сообщения
Вы не можете удалять свои сообщения
Вы не можете голосовать в опросах
Вы не можете прикреплять файлы к сообщениям
Вы не можете скачивать файлы