H.Berlioz - Le Corsaire, L.V.Beethoven - Piano Concerto № 2, P.I.Tchaikovsky - Symphony № 4 (Tonhalle-Orchester Zurich, Michael Sanderling) [2013, классика, HDTVRip]


 

[Цитировать]

H.Berlioz - Le Corsaire, L.V.Beethoven - Piano Concerto № 2, P.I.Tchaikovsky - Symphony № 4 (Tonhalle-Orchester Zurich, Michael Sanderling)
Год выпуска: 2013
Лейбл: Mezzo HD
Страна-производитель: Германия
Жанр: классика
Продолжительность: 01:25:41
Субтитры: нет
Дирижёр: Michael Sanderling
Исполнители:
Tonhalle-Orchester Zurich, Michael Sanderling (direction/conductor)
Rafael Blechacz (piano)
Треклист:
1. Hector Berlioz (Le Corsaire, op. 21)
2. Ludwig van Beethoven (Concerto pour piano # 2, op. 19 / Piano Concerto № 2, Op. 19)
3. Pyotr I. Tchaikovsky (Symphonie # 4, op. 36 / Symphony № 4, Op. 36)
Качество видео: HDTVRip
Формат/Контейнер: MPEG4
Видео кодек: H.264
Аудио кодек: AAC
Видео поток: 1920x1080 (16:9), 25.00 fps, AVC, 8974 Кбит, 0.172 bits/pixel
Аудио поток: 48.0 KHz, AAC-LC, 2 ch, 128 Kbps VBR

Отчёт MediaInfo

Полное имя : G:\DVD\Tonhalle-Orchester Zurich - Berlioz (2013)\Tonhalle-Orchester Zurich - Berlioz.mp4Формат : MPEG-4Профиль формата : Base Media / Version 2Идентификатор кодека : mp42Размер файла : 5,60 ГбайтПродолжительность : 1 ч. 25 м.Общий поток : 9362 Кбит/секДата кодирования : UTC 2013-09-30 05:01:12Дата пометки : UTC 2013-09-30 05:01:12
ВидеоИдентификатор : 2Формат : AVCФормат/Информация : Advanced Video CodecПрофиль формата : Main@L4.0Параметр CABAC формата : ДаПараметр ReFrames формата : 2 кадраИдентификатор кодека : avc1Идентификатор кодека/Информация : Advanced Video CodingПродолжительность : 1 ч. 25 м.Вид битрейта : ПеременныйБитрейт : 8974 Кбит/секМаксимальный битрейт : 9001 Кбит/секШирина : 1920 пикселейВысота : 1088 пикселейВысота оригинала : 1080 пикселейСоотношение сторон : 16:9Соотношение сторон в оригинале : 16:9Режим частоты кадров : ПостоянныйЧастота кадров : 25,000 кадров/секЧастота кадров в оригинале : 12,500 кадров/секЦветовое пространство : YUVСубдискретизация насыщенности : 4:2:0Битовая глубина : 8 битТип развёртки : ПрогрессивнаяБит/(Пиксели*Кадры) : 0.172Размер потока : 5,37 Гбайт (96%)Язык : EnglishДата кодирования : UTC 2013-09-30 05:01:12Дата пометки : UTC 2013-09-30 05:01:12
АудиоИдентификатор : 1Формат : AACФормат/Информация : Advanced Audio CodecПрофиль формата : LCИдентификатор кодека : 40Продолжительность : 1 ч. 25 м.Вид битрейта : ПостоянныйБитрейт : 384 Кбит/секНоминальный битрейт : 128 Кбит/секКаналы : 2 каналаРасположение каналов : Front: L RЧастота : 48,0 КГцМетод сжатия : С потерямиРазмер потока : 235 Мбайт (4%)Язык : EnglishДата кодирования : UTC 2013-09-30 05:01:12Дата пометки : UTC 2013-09-30 05:01:12



Показать сообщения:    

Текущее время: 08-Дек 14:58

Часовой пояс: UTC + 3


Вы не можете начинать темы
Вы не можете отвечать на сообщения
Вы не можете редактировать свои сообщения
Вы не можете удалять свои сообщения
Вы не можете голосовать в опросах
Вы не можете прикреплять файлы к сообщениям
Вы не можете скачивать файлы