Felix Mendelssohn - Ruy Blas, ouverture, Symphony №3 / Benjamin Britten - Violin Concerto (Tonhalle-Orchester Zurich, Sir Roger Norrington) [2013, классика, HDTVRip]


 

[Цитировать]

F.M.Bartholdy - Ruy Blas, ouverture, B.Britten - Violin Concerto, F.M.Bartholdy - Symphony №3 (Tonhalle-Orchester Zurich, Sir Roger Norrington)
Год выпуска: 2013
Лейбл: Mezzo HD
Страна-производитель: Германия
Жанр: классика
Продолжительность: 01:32:41
Субтитры: нет
Дирижёр: Sir Roger Norrington
Исполнители:
Tonhalle-Orchester Zurich, Sir Roger Norrington (direction/conductor)
Isabelle Faust (violin)
Треклист:
1. Felix Mendelssohn Bartholdy (Ruy Blas, ouverture, op. 95)
2. Benjamin Britten (Concerto pour violon, op.15 / Violin Concerto, Op.15)
3. Felix Mendelssohn Bartholdy (Symphonie # 3, op. 56 / Symphony № 3, Op.56)
Качество видео: HDTVRip
Формат/Контейнер: MPEG4
Видео кодек: H.264
Аудио кодек: AAC
Видео поток: 1920x1080 (16:9), 25.00 fps, AVC, 9001 Кбит, 0.174 bits/pixel
Аудио поток: 48.0 KHz, AAC-LC, 2 ch, 128 Kbps VBR

Отчёт MediaInfo

Полное имя : G:\DVD\Tonhalle-Orchester Zurich - Britten (2013)\Tonhalle-Orchester Zurich - Britten.mp4Формат : MPEG-4Профиль формата : Base Media / Version 2Идентификатор кодека : mp42Размер файла : 6,12 ГбайтПродолжительность : 1 ч. 32 м.Общий поток : 9450 Кбит/секДата кодирования : UTC 2013-09-28 06:37:10Дата пометки : UTC 2013-09-28 06:37:10
ВидеоИдентификатор : 2Формат : AVCФормат/Информация : Advanced Video CodecПрофиль формата : Main@L4.0Параметр CABAC формата : ДаПараметр ReFrames формата : 2 кадраИдентификатор кодека : avc1Идентификатор кодека/Информация : Advanced Video CodingПродолжительность : 1 ч. 32 м.Вид битрейта : ПеременныйБитрейт : 9062 Кбит/секМаксимальный битрейт : 9001 Кбит/секШирина : 1920 пикселейВысота : 1088 пикселейВысота оригинала : 1080 пикселейСоотношение сторон : 16:9Соотношение сторон в оригинале : 16:9Режим частоты кадров : ПостоянныйЧастота кадров : 25,000 кадров/секЧастота кадров в оригинале : 12,500 кадров/секЦветовое пространство : YUVСубдискретизация насыщенности : 4:2:0Битовая глубина : 8 битТип развёртки : ПрогрессивнаяБит/(Пиксели*Кадры) : 0.174Размер потока : 5,87 Гбайт (96%)Язык : EnglishДата кодирования : UTC 2013-09-28 06:37:10Дата пометки : UTC 2013-09-28 06:37:10
АудиоИдентификатор : 1Формат : AACФормат/Информация : Advanced Audio CodecПрофиль формата : LCИдентификатор кодека : 40Продолжительность : 1 ч. 32 м.Вид битрейта : ПостоянныйБитрейт : 384 Кбит/секНоминальный битрейт : 128 Кбит/секКаналы : 2 каналаРасположение каналов : Front: L RЧастота : 48,0 КГцМетод сжатия : С потерямиРазмер потока : 255 Мбайт (4%)Язык : EnglishДата кодирования : UTC 2013-09-28 06:37:10Дата пометки : UTC 2013-09-28 06:37:10



Показать сообщения:    

Текущее время: 09-Дек 06:56

Часовой пояс: UTC + 3


Вы не можете начинать темы
Вы не можете отвечать на сообщения
Вы не можете редактировать свои сообщения
Вы не можете удалять свои сообщения
Вы не можете голосовать в опросах
Вы не можете прикреплять файлы к сообщениям
Вы не можете скачивать файлы