Стравинский - Петрушка, Свадебка, Antheil - Ballet Mecanique (Tonhalle-Orchester Zurich, David Zinman) [2013, классика, HDTVRip]


 

[Цитировать]

Стравинский - Петрушка, Свадебка, Antheil - Ballet Mecanique (Tonhalle-Orchester Zurich, David Zinman)
Год выпуска: 2013
Лейбл: Mezzo HD
Страна-производитель: Германия
Жанр: классика
Продолжительность: 01:35:16
Субтитры: нет
Режиссер/Хореограф: David Zinman
Исполнители:
Tonhalle-Orchester Zurich, David Zinman (direction / conductor)
Evgeniya Sotnikova (soprano)
Anna Goryachova (alto)
Ales Briscein (tenor)
Goran Juric (bass)
Tim Brown (choir master)
Zurchen Sing-Akademie
Gerhswin Piano Quartet
Andre Desponds, Stefan Wirth
Benjamin Engeli, Misha Cheung
Rex Lawson (pianola)
Треклист:
1. Igor Stravinsky (Petrouchka/Petrushka)
2. Igor Stravinsky (Les Noces)
3. George Antheil (Ballet Mecanique)
Качество видео: HDTVRip
Формат/Контейнер: MPEG-4
Видео кодек: H.264
Аудио кодек: AAC
Видео поток: 1920x1080 (16:9), 25.00 fps, AVC, 8860 Кбит, 0.170 bits/pixel
Аудио поток: 48.0 KHz, AAC-LC, 2 ch, 128 Kbps VBR

Отчёт MediaInfo

Формат : MPEG-4Профиль формата : Base Media / Version 2Идентификатор кодека : mp42Размер файла : 6,15 ГбайтПродолжительность : 1 ч. 35 м.Общий поток : 9248 Кбит/секДата кодирования : UTC 2013-09-28 05:00:11Дата пометки : UTC 2013-09-28 05:00:11
ВидеоИдентификатор : 2Формат : AVCФормат/Информация : Advanced Video CodecПрофиль формата : Main@L4.0Параметр CABAC формата : ДаПараметр ReFrames формата : 2 кадраИдентификатор кодека : avc1Идентификатор кодека/Информация : Advanced Video CodingПродолжительность : 1 ч. 35 м.Вид битрейта : ПеременныйБитрейт : 8860 Кбит/секМаксимальный битрейт : 9001 Кбит/секШирина : 1920 пикселейВысота : 1088 пикселейВысота оригинала : 1080 пикселейСоотношение сторон : 16:9Соотношение сторон в оригинале : 16:9Режим частоты кадров : ПостоянныйЧастота кадров : 25,000 кадров/секЧастота кадров в оригинале : 12,500 кадров/секЦветовое пространство : YUVСубдискретизация насыщенности : 4:2:0Битовая глубина : 8 битТип развёртки : ПрогрессивнаяБит/(Пиксели*Кадры) : 0.170Размер потока : 5,90 Гбайт (96%)Язык : EnglishДата кодирования : UTC 2013-09-28 05:00:11Дата пометки : UTC 2013-09-28 05:00:11
АудиоИдентификатор : 1Формат : AACФормат/Информация : Advanced Audio CodecПрофиль формата : LCИдентификатор кодека : 40Продолжительность : 1 ч. 35 м.Вид битрейта : ПостоянныйБитрейт : 384 Кбит/секНоминальный битрейт : 128 Кбит/секКаналы : 2 каналаРасположение каналов : Front: L RЧастота : 48,0 КГцМетод сжатия : С потерямиРазмер потока : 261 Мбайт (4%)Язык : EnglishДата кодирования : UTC 2013-09-28 05:00:11



Показать сообщения:    

Текущее время: 08-Дек 21:12

Часовой пояс: UTC + 3


Вы не можете начинать темы
Вы не можете отвечать на сообщения
Вы не можете редактировать свои сообщения
Вы не можете удалять свои сообщения
Вы не можете голосовать в опросах
Вы не можете прикреплять файлы к сообщениям
Вы не можете скачивать файлы