Stravinsky / Игорь Стравинский - Le Sacre du Printemps | Sibelius - Symphony No.5 (London Symphony Orchestra - Leonard Bernstein) [2012, Orchestral, DVD5]


 

[Цитировать]

Leonard Bernstein
Stravinsky
Le Sacre du Printemps
Sibelius
Symphony No.5
-
-
-
-
- Год выпуска: 2012
Лейбл: ICA
Страна-производитель: EU
Жанр: Orchestral
Продолжительность: 85'54''
Треклист:
Igor Stravinsky - »Le Sacre du Printemps«
I. L'Adoration de la Terre
II. Le Sacrifice
Jean Sibelius - Symphony No.5
I. Allegro moderato
II. Andantino con moto, quasi allegretto
III. Moderato
Исполнители:
London Symphony Orchestra - Leonard Bernstein
rec. 27.11.1967, Fairfield Halls Corydon
Качество видео: DVD5
Формат/Контейнер: DVDVideo
Видео кодек: MPEG2
Аудио кодек: PCM
Видео поток: NTSC, 720x480, 29.9 fps
Аудио поток: PCM, 48 kHz

Mediainfo

ОбщееПолное имя : K:\Video\Music\Stravinsky - Le Sacre du Printemps; Sibelius - Symphony No.5 (Bernstein)\VIDEO_TS\VIDEO_TS.BUPФормат : DVD VideoПрофиль формата : MenuРазмер файла : 14,0 КбайтРежим общего битрейта : Переменный
ВидеоИдентификатор : 224 (0xE0)Формат : MPEG VideoВерсия формата : Version 2Вид битрейта : ПеременныйШирина : 720 пикселейВысота : 480 пикселейСоотношение сторон : 4:3Частота кадров : 29,970 кадров/секСтандарт вещания : NTSCМетод сжатия : С потерями
ТекстФормат : RLEФормат/Информация : Run-length encodingБитовая глубина : 2 бит
ОбщееПолное имя : K:\Video\Music\Stravinsky - Le Sacre du Printemps; Sibelius - Symphony No.5 (Bernstein)\VIDEO_TS\VIDEO_TS.IFOФормат : DVD VideoПрофиль формата : MenuРазмер файла : 14,0 КбайтРежим общего битрейта : Переменный
ВидеоИдентификатор : 224 (0xE0)Формат : MPEG VideoВерсия формата : Version 2Вид битрейта : ПеременныйШирина : 720 пикселейВысота : 480 пикселейСоотношение сторон : 4:3Частота кадров : 29,970 кадров/секСтандарт вещания : NTSCМетод сжатия : С потерями
ТекстФормат : RLEФормат/Информация : Run-length encodingБитовая глубина : 2 бит
ОбщееПолное имя : K:\Video\Music\Stravinsky - Le Sacre du Printemps; Sibelius - Symphony No.5 (Bernstein)\VIDEO_TS\VIDEO_TS.VOBФормат : MPEG-PSРазмер файла : 2,66 МбайтПродолжительность : 4 с. 589 мс.Режим общего битрейта : ПеременныйОбщий поток : 4866 Кбит/сек
ВидеоИдентификатор : 224 (0xE0)Формат : MPEG VideoВерсия формата : Version 2Профиль формата : Main@MainПараметр BVOP формата : ДаПараметр матрицы формата : ВыборочнаяПродолжительность : 4 с. 589 мс.Вид битрейта : ПеременныйБитрейт : 4769 Кбит/секШирина : 720 пикселейВысота : 480 пикселейСоотношение сторон : 4:3Частота кадров : 29,970 кадров/секСтандарт вещания : NTSCЦветовое пространство : YUVСубдискретизация насыщенности : 4:2:0Битовая глубина : 8 битМетод сжатия : С потерямиБит/(Пиксели*Кадры) : 0.460Размер потока : 2,62 Мбайт (98%)
ТекстИдентификатор : 189 (0xBD)-32 (0x20)Формат : RLEФормат/Информация : Run-length encodingРежим смешивания : DVD-VideoЗадержка видео : -49 мс.
Меню
ОбщееПолное имя : K:\Video\Music\Stravinsky - Le Sacre du Printemps; Sibelius - Symphony No.5 (Bernstein)\VIDEO_TS\VTS_01_0.BUPФормат : DVD VideoПрофиль формата : ProgramРазмер файла : 12,0 КбайтПродолжительность : 500 мс.Режим общего битрейта : ПеременныйОбщий поток : 197 Кбит/сек
ВидеоИдентификатор : 224 (0xE0)Формат : MPEG VideoВерсия формата : Version 2Продолжительность : 501 мс.Вид битрейта : ПеременныйШирина : 720 пикселейВысота : 480 пикселейСоотношение сторон : 4:3Частота кадров : 29,970 кадров/секСтандарт вещания : NTSCМетод сжатия : С потерями
МенюПродолжительность : 500 мс.00:00:00.000 : Chapter 1
ОбщееПолное имя : K:\Video\Music\Stravinsky - Le Sacre du Printemps; Sibelius - Symphony No.5 (Bernstein)\VIDEO_TS\VTS_01_0.IFOФормат : DVD VideoПрофиль формата : ProgramРазмер файла : 12,0 КбайтПродолжительность : 500 мс.Режим общего битрейта : ПеременныйОбщий поток : 197 Кбит/сек
ВидеоИдентификатор : 224 (0xE0)Формат : MPEG VideoВерсия формата : Version 2Продолжительность : 501 мс.Вид битрейта : ПеременныйШирина : 720 пикселейВысота : 480 пикселейСоотношение сторон : 4:3Частота кадров : 29,970 кадров/секСтандарт вещания : NTSCМетод сжатия : С потерями
МенюПродолжительность : 500 мс.00:00:00.000 : Chapter 1
ОбщееПолное имя : K:\Video\Music\Stravinsky - Le Sacre du Printemps; Sibelius - Symphony No.5 (Bernstein)\VIDEO_TS\VTS_01_1.VOBФормат : MPEG-PSРазмер файла : 10,0 КбайтПродолжительность : 33 мс.Режим общего битрейта : ПеременныйОбщий поток : 2482 Кбит/сек
ВидеоИдентификатор : 224 (0xE0)Формат : MPEG VideoВерсия формата : Version 2Профиль формата : Main@MainПараметр BVOP формата : НетПараметр матрицы формата : ВыборочнаяПродолжительность : 33 мс.Вид битрейта : ПеременныйМаксимальный битрейт : 4587 Кбит/секШирина : 720 пикселейВысота : 480 пикселейСоотношение сторон : 4:3Частота кадров : 29,970 кадров/секСтандарт вещания : NTSCЦветовое пространство : YUVСубдискретизация насыщенности : 4:2:0Битовая глубина : 8 битТип развёртки : ПрогрессивнаяПорядок развёртки : Верхнее поле первоеМетод сжатия : С потерямиОсновные цвета : SMPTE 170MХарактеристики трансфера : SMPTE 170MКоэффициенты матрицы : SMPTE 170M
Меню
ОбщееПолное имя : K:\Video\Music\Stravinsky - Le Sacre du Printemps; Sibelius - Symphony No.5 (Bernstein)\VIDEO_TS\VTS_02_0.BUPФормат : DVD VideoПрофиль формата : ProgramРазмер файла : 54,0 КбайтПродолжительность : 1 ч. 10 м.Режим общего битрейта : ПеременныйОбщий поток : 105 бит/сек
ВидеоИдентификатор : 224 (0xE0)Формат : MPEG VideoВерсия формата : Version 2Продолжительность : 1 ч. 10 м.Вид битрейта : ПеременныйШирина : 720 пикселейВысота : 480 пикселейСоотношение сторон : 4:3Частота кадров : 29,970 кадров/секСтандарт вещания : NTSCМетод сжатия : С потерями
АудиоИдентификатор : 0 (0x0)Формат : PCMПродолжительность : 1 ч. 10 м.Каналы : 2 каналаЧастота : 48,0 КГц
МенюПродолжительность : 1 ч. 10 м.00:00:00.000 : Chapter 100:03:59.266 : Chapter 200:07:14.599 : Chapter 300:08:28.565 : Chapter 400:11:56.431 : Chapter 500:13:43.197 : Chapter 600:14:40.830 : Chapter 700:16:23.330 : Chapter 800:21:20.330 : Chapter 900:24:24.996 : Chapter 1000:25:56.829 : Chapter 1100:26:46.895 : Chapter 1200:29:59.928 : Chapter 1300:36:12.528 : Chapter 1400:50:22.494 : Chapter 1500:59:49.660 : Chapter 16List (Audio) : 0
ОбщееПолное имя : K:\Video\Music\Stravinsky - Le Sacre du Printemps; Sibelius - Symphony No.5 (Bernstein)\VIDEO_TS\VTS_02_0.IFOФормат : DVD VideoПрофиль формата : ProgramРазмер файла : 54,0 КбайтПродолжительность : 1 ч. 10 м.Режим общего битрейта : ПеременныйОбщий поток : 105 бит/сек
ВидеоИдентификатор : 224 (0xE0)Формат : MPEG VideoВерсия формата : Version 2Продолжительность : 1 ч. 10 м.Вид битрейта : ПеременныйШирина : 720 пикселейВысота : 480 пикселейСоотношение сторон : 4:3Частота кадров : 29,970 кадров/секСтандарт вещания : NTSCМетод сжатия : С потерями
АудиоИдентификатор : 0 (0x0)Формат : PCMПродолжительность : 1 ч. 10 м.Каналы : 2 каналаЧастота : 48,0 КГц
МенюПродолжительность : 1 ч. 10 м.00:00:00.000 : Chapter 100:03:59.266 : Chapter 200:07:14.599 : Chapter 300:08:28.565 : Chapter 400:11:56.431 : Chapter 500:13:43.197 : Chapter 600:14:40.830 : Chapter 700:16:23.330 : Chapter 800:21:20.330 : Chapter 900:24:24.996 : Chapter 1000:25:56.829 : Chapter 1100:26:46.895 : Chapter 1200:29:59.928 : Chapter 1300:36:12.528 : Chapter 1400:50:22.494 : Chapter 1500:59:49.660 : Chapter 16List (Audio) : 0
ОбщееПолное имя : K:\Video\Music\Stravinsky - Le Sacre du Printemps; Sibelius - Symphony No.5 (Bernstein)\VIDEO_TS\VTS_02_0.VOBФормат : MPEG-PSРазмер файла : 170 КбайтПродолжительность : 33 мс.Общий поток : 42,2 Мбит/сек
ВидеоИдентификатор : 224 (0xE0)Формат : MPEG VideoВерсия формата : Version 2Профиль формата : Main@MainПараметр BVOP формата : НетПараметр матрицы формата : ВыборочнаяПараметр GOP формата : N=1Продолжительность : 33 мс.Максимальный битрейт : 8000 Кбит/секШирина : 720 пикселейВысота : 480 пикселейСоотношение сторон : 4:3Частота кадров : 29,970 кадров/секСтандарт вещания : NTSCЦветовое пространство : YUVСубдискретизация насыщенности : 4:2:0Битовая глубина : 8 битТип развёртки : ПрогрессивнаяПорядок развёртки : Верхнее поле первоеМетод сжатия : С потерями
ТекстИдентификатор : 189 (0xBD)-32 (0x20)Формат : RLEФормат/Информация : Run-length encodingРежим смешивания : DVD-VideoЗадержка видео : -49 мс.
Меню
ОбщееПолное имя : K:\Video\Music\Stravinsky - Le Sacre du Printemps; Sibelius - Symphony No.5 (Bernstein)\VIDEO_TS\VTS_02_1.VOBФормат : MPEG-PSРазмер файла : 1024 МбайтПродолжительность : 19 м.Режим общего битрейта : ПеременныйОбщий поток : 7186 Кбит/сек
ВидеоИдентификатор : 224 (0xE0)Формат : MPEG VideoВерсия формата : Version 2Профиль формата : Main@MainПараметр BVOP формата : ДаПараметр матрицы формата : ВыборочнаяПродолжительность : 19 м.Вид битрейта : ПеременныйБитрейт : 5507 Кбит/секМаксимальный битрейт : 9800 Кбит/секШирина : 720 пикселейВысота : 480 пикселейСоотношение сторон : 4:3Частота кадров : 29,970 кадров/секСтандарт вещания : NTSCЦветовое пространство : YUVСубдискретизация насыщенности : 4:2:0Битовая глубина : 8 битТип развёртки : ЧересстрочнаяПорядок развёртки : Нижнее поле первоеМетод сжатия : С потерямиБит/(Пиксели*Кадры) : 0.532Размер потока : 785 Мбайт (77%)
АудиоИдентификатор : 189 (0xBD)-160 (0xA0)Формат : PCMПараметр Endianness формата : BigПараметр Sign формата : SignedРежим смешивания : DVD-VideoПродолжительность : 19 м.Вид битрейта : ПостоянныйБитрейт : 1536 Кбит/секКаналы : 2 каналаЧастота : 48,0 КГцБитовая глубина : 16 битРазмер потока : 219 Мбайт (21%)
Меню
ОбщееПолное имя : K:\Video\Music\Stravinsky - Le Sacre du Printemps; Sibelius - Symphony No.5 (Bernstein)\VIDEO_TS\VTS_02_2.VOBФормат : MPEG-PSРазмер файла : 1024 МбайтПродолжительность : 5 с. 606 мс.Режим общего битрейта : ПеременныйОбщий поток : 1532 Мбит/сек
ВидеоИдентификатор : 224 (0xE0)Формат : MPEG VideoВерсия формата : Version 2Профиль формата : Main@MainПараметр BVOP формата : ДаПараметр матрицы формата : ВыборочнаяПараметр GOP формата : M=3, N=15Продолжительность : 5 с. 606 мс.Вид битрейта : ПеременныйБитрейт : 1500 Мбит/секМаксимальный битрейт : 9800 Кбит/секШирина : 720 пикселейВысота : 480 пикселейСоотношение сторон : 4:3Частота кадров : 29,970 кадров/секСтандарт вещания : NTSCЦветовое пространство : YUVСубдискретизация насыщенности : 4:2:0Битовая глубина : 8 битТип развёртки : ЧересстрочнаяПорядок развёртки : Нижнее поле первоеМетод сжатия : С потерямиБит/(Пиксели*Кадры) : 144.844Размер потока : 1003 Мбайт (98%)
АудиоИдентификатор : 189 (0xBD)-160 (0xA0)Формат : PCMПараметр Endianness формата : BigПараметр Sign формата : SignedРежим смешивания : DVD-VideoПродолжительность : 5 с. 606 мс.Вид битрейта : ПостоянныйБитрейт : 1536 Кбит/секКаналы : 2 каналаЧастота : 48,0 КГцБитовая глубина : 16 битЗадержка видео : -760 мс.Размер потока : 1,03 Мбайт (0%)
Меню
ОбщееПолное имя : K:\Video\Music\Stravinsky - Le Sacre du Printemps; Sibelius - Symphony No.5 (Bernstein)\VIDEO_TS\VTS_02_3.VOBФормат : MPEG-PSРазмер файла : 1024 МбайтПродолжительность : 20 м.Режим общего битрейта : ПеременныйОбщий поток : 7108 Кбит/сек
ВидеоИдентификатор : 224 (0xE0)Формат : MPEG VideoВерсия формата : Version 2Профиль формата : Main@MainПараметр BVOP формата : ДаПараметр матрицы формата : ВыборочнаяПараметр GOP формата : M=3, N=15Продолжительность : 20 м.Вид битрейта : ПеременныйБитрейт : 5431 Кбит/секМаксимальный битрейт : 9800 Кбит/секШирина : 720 пикселейВысота : 480 пикселейСоотношение сторон : 4:3Частота кадров : 29,970 кадров/секСтандарт вещания : NTSCЦветовое пространство : YUVСубдискретизация насыщенности : 4:2:0Битовая глубина : 8 битТип развёртки : ЧересстрочнаяПорядок развёртки : Нижнее поле первоеМетод сжатия : С потерямиБит/(Пиксели*Кадры) : 0.524Размер потока : 782 Мбайт (76%)
АудиоИдентификатор : 189 (0xBD)-160 (0xA0)Формат : PCMПараметр Endianness формата : BigПараметр Sign формата : SignedРежим смешивания : DVD-VideoПродолжительность : 20 м.Вид битрейта : ПостоянныйБитрейт : 1536 Кбит/секКаналы : 2 каналаЧастота : 48,0 КГцБитовая глубина : 16 битЗадержка видео : -673 мс.Размер потока : 221 Мбайт (22%)
Меню
ОбщееПолное имя : K:\Video\Music\Stravinsky - Le Sacre du Printemps; Sibelius - Symphony No.5 (Bernstein)\VIDEO_TS\VTS_02_4.VOBФормат : MPEG-PSРазмер файла : 541 МбайтПродолжительность : 10 м.Режим общего битрейта : ПеременныйОбщий поток : 7546 Кбит/сек
ВидеоИдентификатор : 224 (0xE0)Формат : MPEG VideoВерсия формата : Version 2Профиль формата : Main@MainПараметр BVOP формата : ДаПараметр матрицы формата : ВыборочнаяПродолжительность : 10 м.Вид битрейта : ПеременныйБитрейт : 5860 Кбит/секМаксимальный битрейт : 9800 Кбит/секШирина : 720 пикселейВысота : 480 пикселейСоотношение сторон : 4:3Частота кадров : 29,970 кадров/секСтандарт вещания : NTSCЦветовое пространство : YUVСубдискретизация насыщенности : 4:2:0Битовая глубина : 8 битТип развёртки : ЧересстрочнаяПорядок развёртки : Нижнее поле первоеМетод сжатия : С потерямиБит/(Пиксели*Кадры) : 0.566Размер потока : 420 Мбайт (78%)
АудиоИдентификатор : 189 (0xBD)-160 (0xA0)Формат : PCMПараметр Endianness формата : BigПараметр Sign формата : SignedРежим смешивания : DVD-VideoПродолжительность : 10 м.Вид битрейта : ПостоянныйБитрейт : 1536 Кбит/секКаналы : 2 каналаЧастота : 48,0 КГцБитовая глубина : 16 битЗадержка видео : -711 мс.Размер потока : 110 Мбайт (20%)
Меню
ОбщееПолное имя : K:\Video\Music\Stravinsky - Le Sacre du Printemps; Sibelius - Symphony No.5 (Bernstein)\VIDEO_TS\VTS_03_0.BUPФормат : DVD VideoПрофиль формата : ProgramРазмер файла : 26,0 КбайтПродолжительность : 8 м. 7 с.Режим общего битрейта : ПеременныйОбщий поток : 437 бит/сек
ВидеоИдентификатор : 224 (0xE0)Формат : MPEG VideoВерсия формата : Version 2Продолжительность : 8 м. 7 с.Вид битрейта : ПеременныйШирина : 720 пикселейВысота : 480 пикселейСоотношение сторон : 4:3Частота кадров : 29,970 кадров/секСтандарт вещания : NTSCМетод сжатия : С потерями
АудиоИдентификатор : 0 (0x0)Формат : PCMПродолжительность : 8 м. 7 с.Каналы : 2 каналаЧастота : 48,0 КГцЯзык : English
Текст #1Идентификатор : 32 (0x20)Формат : RLEФормат/Информация : Run-length encodingБитовая глубина : 2 битЯзык : German
Текст #2Идентификатор : 32 (0x20)Формат : RLEФормат/Информация : Run-length encodingБитовая глубина : 2 битЯзык : French
Меню #1Продолжительность : 4 м. 33 с.00:00:00.000 : Chapter 1List (Audio) : 0List (Subtitles 4/3) : 0 / 1List (Subtitles Wide) : 0 / 0List (Subtitles Letterbox) : 0 / 0List (Subtitles Pan&Scan) : 0 / 0
Меню #2Продолжительность : 8 м. 7 с.00:00:00.000 : Chapter 1List (Audio) : 0List (Subtitles 4/3) : 0 / 1List (Subtitles Wide) : 0 / 0List (Subtitles Letterbox) : 0 / 0List (Subtitles Pan&Scan) : 0 / 0
Меню #3
ОбщееПолное имя : K:\Video\Music\Stravinsky - Le Sacre du Printemps; Sibelius - Symphony No.5 (Bernstein)\VIDEO_TS\VTS_03_0.IFOФормат : DVD VideoПрофиль формата : ProgramРазмер файла : 26,0 КбайтПродолжительность : 8 м. 7 с.Режим общего битрейта : ПеременныйОбщий поток : 437 бит/сек
ВидеоИдентификатор : 224 (0xE0)Формат : MPEG VideoВерсия формата : Version 2Продолжительность : 8 м. 7 с.Вид битрейта : ПеременныйШирина : 720 пикселейВысота : 480 пикселейСоотношение сторон : 4:3Частота кадров : 29,970 кадров/секСтандарт вещания : NTSCМетод сжатия : С потерями
АудиоИдентификатор : 0 (0x0)Формат : PCMПродолжительность : 8 м. 7 с.Каналы : 2 каналаЧастота : 48,0 КГцЯзык : English
Текст #1Идентификатор : 32 (0x20)Формат : RLEФормат/Информация : Run-length encodingБитовая глубина : 2 битЯзык : German
Текст #2Идентификатор : 32 (0x20)Формат : RLEФормат/Информация : Run-length encodingБитовая глубина : 2 битЯзык : French
Меню #1Продолжительность : 4 м. 33 с.00:00:00.000 : Chapter 1List (Audio) : 0List (Subtitles 4/3) : 0 / 1List (Subtitles Wide) : 0 / 0List (Subtitles Letterbox) : 0 / 0List (Subtitles Pan&Scan) : 0 / 0
Меню #2Продолжительность : 8 м. 7 с.00:00:00.000 : Chapter 1List (Audio) : 0List (Subtitles 4/3) : 0 / 1List (Subtitles Wide) : 0 / 0List (Subtitles Letterbox) : 0 / 0List (Subtitles Pan&Scan) : 0 / 0
Меню #3
ОбщееПолное имя : K:\Video\Music\Stravinsky - Le Sacre du Printemps; Sibelius - Symphony No.5 (Bernstein)\VIDEO_TS\VTS_03_0.VOBФормат : MPEG-PSРазмер файла : 170 КбайтПродолжительность : 33 мс.Общий поток : 42,2 Мбит/сек
ВидеоИдентификатор : 224 (0xE0)Формат : MPEG VideoВерсия формата : Version 2Профиль формата : Main@MainПараметр BVOP формата : НетПараметр матрицы формата : ВыборочнаяПараметр GOP формата : N=1Продолжительность : 33 мс.Максимальный битрейт : 8000 Кбит/секШирина : 720 пикселейВысота : 480 пикселейСоотношение сторон : 4:3Частота кадров : 29,970 кадров/секСтандарт вещания : NTSCЦветовое пространство : YUVСубдискретизация насыщенности : 4:2:0Битовая глубина : 8 битТип развёртки : ПрогрессивнаяПорядок развёртки : Верхнее поле первоеМетод сжатия : С потерями
ТекстИдентификатор : 189 (0xBD)-32 (0x20)Формат : RLEФормат/Информация : Run-length encodingРежим смешивания : DVD-VideoЗадержка видео : -49 мс.
Меню
ОбщееПолное имя : K:\Video\Music\Stravinsky - Le Sacre du Printemps; Sibelius - Symphony No.5 (Bernstein)\VIDEO_TS\VTS_03_1.VOBФормат : MPEG-PSРазмер файла : 609 МбайтПродолжительность : 4 м. 33 с.Режим общего битрейта : ПеременныйОбщий поток : 18,7 Мбит/сек
ВидеоИдентификатор : 224 (0xE0)Формат : MPEG VideoВерсия формата : Version 2Профиль формата : Main@MainПараметр BVOP формата : ДаПараметр матрицы формата : ВыборочнаяПродолжительность : 4 м. 33 с.Вид битрейта : ПеременныйБитрейт : 16,8 Мбит/секМаксимальный битрейт : 9800 Кбит/секШирина : 720 пикселейВысота : 480 пикселейСоотношение сторон : 4:3Частота кадров : 29,970 кадров/секСтандарт вещания : NTSCЦветовое пространство : YUVСубдискретизация насыщенности : 4:2:0Битовая глубина : 8 битТип развёртки : ЧересстрочнаяПорядок развёртки : Нижнее поле первоеМетод сжатия : С потерямиБит/(Пиксели*Кадры) : 1.618Размер потока : 547 Мбайт (90%)
АудиоИдентификатор : 189 (0xBD)-160 (0xA0)Формат : PCMПараметр Endianness формата : BigПараметр Sign формата : SignedРежим смешивания : DVD-VideoПродолжительность : 4 м. 33 с.Вид битрейта : ПостоянныйБитрейт : 1536 Кбит/секКаналы : 2 каналаЧастота : 48,0 КГцБитовая глубина : 16 битРазмер потока : 50,1 Мбайт (8%)
Текст #1Идентификатор : 189 (0xBD)-32 (0x20)Формат : RLEФормат/Информация : Run-length encodingРежим смешивания : DVD-VideoЗадержка видео : 1 с. 134 мс.
Текст #2Идентификатор : 189 (0xBD)-33 (0x21)Формат : RLEФормат/Информация : Run-length encodingРежим смешивания : DVD-VideoЗадержка видео : 1 с. 134 мс.
Меню
ОбщееПолное имя : K:\Video\Music\Stravinsky - Le Sacre du Printemps; Sibelius - Symphony No.5 (Bernstein)\VIDEO_TS\VTS_04_0.BUPФормат : DVD VideoПрофиль формата : ProgramРазмер файла : 18,0 КбайтПродолжительность : 2 м. 58 с.Режим общего битрейта : ПеременныйОбщий поток : 827 бит/сек
ВидеоИдентификатор : 224 (0xE0)Формат : MPEG VideoВерсия формата : Version 2Продолжительность : 2 м. 58 с.Вид битрейта : ПеременныйШирина : 720 пикселейВысота : 480 пикселейСоотношение сторон : 4:3Частота кадров : 29,970 кадров/секСтандарт вещания : NTSCМетод сжатия : С потерями
АудиоИдентификатор : 0 (0x0)Формат : PCMПродолжительность : 2 м. 58 с.Каналы : 2 каналаЧастота : 48,0 КГц
МенюПродолжительность : 2 м. 58 с.00:00:00.000 : Chapter 1List (Audio) : 0
ОбщееПолное имя : K:\Video\Music\Stravinsky - Le Sacre du Printemps; Sibelius - Symphony No.5 (Bernstein)\VIDEO_TS\VTS_04_0.IFOФормат : DVD VideoПрофиль формата : ProgramРазмер файла : 18,0 КбайтПродолжительность : 2 м. 58 с.Режим общего битрейта : ПеременныйОбщий поток : 827 бит/сек
ВидеоИдентификатор : 224 (0xE0)Формат : MPEG VideoВерсия формата : Version 2Продолжительность : 2 м. 58 с.Вид битрейта : ПеременныйШирина : 720 пикселейВысота : 480 пикселейСоотношение сторон : 4:3Частота кадров : 29,970 кадров/секСтандарт вещания : NTSCМетод сжатия : С потерями
АудиоИдентификатор : 0 (0x0)Формат : PCMПродолжительность : 2 м. 58 с.Каналы : 2 каналаЧастота : 48,0 КГц
МенюПродолжительность : 2 м. 58 с.00:00:00.000 : Chapter 1List (Audio) : 0
ОбщееПолное имя : K:\Video\Music\Stravinsky - Le Sacre du Printemps; Sibelius - Symphony No.5 (Bernstein)\VIDEO_TS\VTS_04_0.VOBФормат : MPEG-PSРазмер файла : 8,00 КбайтПродолжительность : 33 мс.Общий поток : 1986 Кбит/сек
ВидеоИдентификатор : 224 (0xE0)Формат : MPEG VideoВерсия формата : Version 2Профиль формата : Main@MainПараметр BVOP формата : НетПараметр матрицы формата : ВыборочнаяПродолжительность : 33 мс.Максимальный битрейт : 8000 Кбит/секШирина : 720 пикселейВысота : 480 пикселейСоотношение сторон : 4:3Частота кадров : 29,970 кадров/секСтандарт вещания : NTSCЦветовое пространство : YUVСубдискретизация насыщенности : 4:2:0Битовая глубина : 8 битТип развёртки : ПрогрессивнаяПорядок развёртки : Верхнее поле первоеМетод сжатия : С потерями
Меню
ОбщееПолное имя : K:\Video\Music\Stravinsky - Le Sacre du Printemps; Sibelius - Symphony No.5 (Bernstein)\VIDEO_TS\VTS_04_1.VOBФормат : MPEG-PSРазмер файла : 164 МбайтПродолжительность : 2 м. 58 с.Режим общего битрейта : ПеременныйОбщий поток : 7686 Кбит/сек
ВидеоИдентификатор : 224 (0xE0)Формат : MPEG VideoВерсия формата : Version 2Профиль формата : Main@MainПараметр BVOP формата : ДаПараметр матрицы формата : ВыборочнаяПродолжительность : 2 м. 58 с.Вид битрейта : ПеременныйБитрейт : 5997 Кбит/секМаксимальный битрейт : 9800 Кбит/секШирина : 720 пикселейВысота : 480 пикселейСоотношение сторон : 4:3Частота кадров : 29,970 кадров/секСтандарт вещания : NTSCЦветовое пространство : YUVСубдискретизация насыщенности : 4:2:0Битовая глубина : 8 битТип развёртки : ЧересстрочнаяПорядок развёртки : Нижнее поле первоеМетод сжатия : С потерямиБит/(Пиксели*Кадры) : 0.579Размер потока : 128 Мбайт (78%)
АудиоИдентификатор : 189 (0xBD)-160 (0xA0)Формат : PCMПараметр Endianness формата : BigПараметр Sign формата : SignedРежим смешивания : DVD-VideoПродолжительность : 2 м. 58 с.Вид битрейта : ПостоянныйБитрейт : 1536 Кбит/секКаналы : 2 каналаЧастота : 48,0 КГцБитовая глубина : 16 битРазмер потока : 32,7 Мбайт (20%)
Меню



Показать сообщения:    

Текущее время: 11-Дек 11:07

Часовой пояс: UTC + 3


Вы не можете начинать темы
Вы не можете отвечать на сообщения
Вы не можете редактировать свои сообщения
Вы не можете удалять свои сообщения
Вы не можете голосовать в опросах
Вы не можете прикреплять файлы к сообщениям
Вы не можете скачивать файлы