Bach - Cantates BWV 82 & 170 (Le Banquet Celeste, Damien Guillon) : Festival de Saintes [2010, Baroque, HDTV 1080i] Mezzo live HD


 

[Цитировать]

Festival de Saintes 2010
Bach : Cantates BWV 82 & 170
Le Banquet Céleste, Damien Guillon

Год выпуска: 2010
Лейбл: Mezzo HD
Страна-производитель: France
Жанр: Baroque
Продолжительность: 58:28
Réalisé: par Vincent Massip
Треклист: Johann Sebastian Bach
Cantate BWV 82 «Ich habe genug»
Cantate BWV 170 «Vergnügte Ruh, beliebte Seelenlust»
Исполнители:
Le Banquet Céleste
Damien Guillon, contre-ténor & direction
Baptiste Lopez, violon I
Caroline Bayet, violon II
Paul De Clerck, alto
Patrick Beaugiraud, hautbois
Ageet Zweistra, violoncelle
Thomas de Pierrefeu, contrebasse
Kevin Manent, clavecin
Maude Gratton, orgue
Качество видео: HDTV
Формат/Контейнер: TS
Видео кодек: H.264
Аудио кодек: AC3
Видео поток: AVC, 1920×1080i, 9620 Kbps, 25 fps
Аудио поток: AC3, 256 Kbps, 48.0 KHz, 2 channels

MediaInfo

General
ID : 1 (0x1)
Complete name : G:\Torrent\Festival de Saintes 2010 - Banquet Celeste, Damien Guillon.ts
Format : MPEG-TS
File size : 3.93 GiB
Duration : 58mn 27s
Overall bit rate mode : Variable
Overall bit rate : 9 620 Kbps
Maximum Overall bit rate : 35.5 Mbps
Video
ID : 4113 (0x1011)
Menu ID : 1 (0x1)
Format : AVC
Format/Info : Advanced Video Codec
Format profile : High@L4.0
Format settings, CABAC : Yes
Format settings, ReFrames : 3 frames
Format settings, GOP : M=4, N=32
Codec ID : 27
Duration : 58mn 27s
Bit rate : 8 886 Kbps
Width : 1 920 pixels
Height : 1 080 pixels
Display aspect ratio : 16:9
Frame rate : 25.000 fps
Standard : Component
Color space : YUV
Chroma subsampling : 4:2:0
Bit depth : 8 bits
Scan type : Interlaced
Scan order : Top Field First
Bits/(Pixel*Frame) : 0.171
Stream size : 3.63 GiB (92%)
Color primaries : BT.709
Transfer characteristics : BT.709
Matrix coefficients : BT.709
Audio
ID : 4352 (0x1100)
Menu ID : 1 (0x1)
Format : AC-3
Format/Info : Audio Coding 3
Mode extension : CM (complete main)
Format settings, Endianness : Big
Codec ID : 129
Duration : 58mn 27s
Bit rate mode : Constant
Bit rate : 256 Kbps
Channel(s) : 2 channels
Channel positions : Front: L R
Sampling rate : 48.0 KHz
Bit depth : 16 bits
Compression mode : Lossy
Stream size : 107 MiB (3%)
Language : French

Скриншоты

Доп. информация: Enregistré à l'Abbaye aux Dames le 11 juillet 2010
dans le cadre de la 39ème édition du Festival de Saintes



Показать сообщения:    

Текущее время: 06-Дек 13:11

Часовой пояс: UTC + 3


Вы не можете начинать темы
Вы не можете отвечать на сообщения
Вы не можете редактировать свои сообщения
Вы не можете удалять свои сообщения
Вы не можете голосовать в опросах
Вы не можете прикреплять файлы к сообщениям
Вы не можете скачивать файлы