Couperin - Les Nations (Les Talens Lyriques, Christophe Rousset) : Festival de Saintes [2010, Baroque, HDTV 1080i] Mezzo live HD


 

[Цитировать]

Festival de Saintes 2010
François Couperin : Les Nations
Les Talens Lyriques, Christophe Rousset

Год выпуска: 2010
Лейбл: Mezzo HD
Страна-производитель: France
Жанр: Baroque
Продолжительность: 1:04:26
Réalisé: par Louise Narboni
Треклист:
François Couperin
Les Nations
Исполнители:
Les Talens Lyriques
Violons: François Fernandez, Gilone Gaubert-Jacques
Viole de gambe: Kaori Uemura
Flûtes traversières: Georges Barthel, Stefanie Troffaes
Hautbois: Gilles Vanssons, Emmanuel Laporte
Basson: Catherine Pépin
Clavecin et direction: Christophe Rousset
Качество видео: HDTV
Формат/Контейнер: TS
Видео кодек: H.264
Аудио кодек: AC3
Видео поток: AVC, 1920×1080i, 9260 Kbps, 25 fps
Аудио поток: AC3, 256 Kbps, 48.0 KHz, 2 channels

MediaInfo

General
ID : 1 (0x1)
Complete name : G:\Torrent\Festival de Saintes 2010 - Les Talens Lyriques, Christophe Rousset.ts
Format : MPEG-TS
File size : 4.17 GiB
Duration : 1h 4mn
Overall bit rate mode : Variable
Overall bit rate : 9 260 Kbps
Maximum Overall bit rate : 35.5 Mbps
Video
ID : 4113 (0x1011)
Menu ID : 1 (0x1)
Format : AVC
Format/Info : Advanced Video Codec
Format profile : High@L4.0
Format settings, CABAC : Yes
Format settings, ReFrames : 3 frames
Codec ID : 27
Duration : 1h 4mn
Bit rate : 8 544 Kbps
Width : 1 920 pixels
Height : 1 080 pixels
Display aspect ratio : 16:9
Frame rate : 25.000 fps
Standard : Component
Color space : YUV
Chroma subsampling : 4:2:0
Bit depth : 8 bits
Scan type : Interlaced
Scan order : Top Field First
Bits/(Pixel*Frame) : 0.165
Stream size : 3.85 GiB (92%)
Color primaries : BT.709
Transfer characteristics : BT.709
Matrix coefficients : BT.709
Audio
ID : 4352 (0x1100)
Menu ID : 1 (0x1)
Format : AC-3
Format/Info : Audio Coding 3
Mode extension : CM (complete main)
Format settings, Endianness : Big
Codec ID : 129
Duration : 1h 4mn
Bit rate mode : Constant
Bit rate : 256 Kbps
Channel(s) : 2 channels
Channel positions : Front: L R
Sampling rate : 48.0 KHz
Bit depth : 16 bits
Compression mode : Lossy
Stream size : 118 MiB (3%)
Language : French

Скриншоты



Доп. информация: Enregistré à l'Abbaye aux Dames le 12 juillet 2010
dans le cadre de la 39ème édition du Festival de Saintes



Показать сообщения:    

Текущее время: 07-Дек 13:37

Часовой пояс: UTC + 3


Вы не можете начинать темы
Вы не можете отвечать на сообщения
Вы не можете редактировать свои сообщения
Вы не можете удалять свои сообщения
Вы не можете голосовать в опросах
Вы не можете прикреплять файлы к сообщениям
Вы не можете скачивать файлы