Lang Lang - Live in Berlin featuring Herbie Hancock (Чайковский, Chopin, Bernstein, Gershwin, Lu Wen Chen) [2012, Classical, HDTV]


 

[Цитировать]

Lang Lang - Live in Berlin featuring Herbie Hancock
Год выпуска: 2012
Страна-производитель: Германия
Жанр: Classical
Продолжительность: 1ч 21мин
Язык: Немецкий
Перевод: не требуется
Субтитры: нет
Режиссер: Hannes Rossacher
Исполнители:
Lang Lang (Klavier)
Herbie Hancock (Klavier)
Dirigent: Jahja Ling
Orchester: Orchester des Schleswig-Holstein
Треклист:
- Tschaikowsky, Piano Concerto No. 1
- Chopin, Étude Op. 25, No. 1A-flat Major
- Bernstein, Tonight from "West Side Story"
- Gershwin, Rhapsody in Blue and Prelude No. 1
- Lu Wen Chen, Reflections of the Moon on the Calm Lake
Описание: Великолепный концерт к 30-летию дня рождения выдающего китайского пианиста Ланг Ланг. Концерт состоялся в июне 2012 года в Берлине. Пианист Ланг Ланг вместе с легендой джаза Херби Хэнкок и оркестр Музыкального Фестивалья Шлезвиг-Гольштейн под руководством индонезийского дирижера Яхья Линг преподносят нам большой музыкальный подарок.

German Description

Ein Konzert der Extraklasse zum 30. Geburtstag des chinesischen Starpianisten Lang Lang im Juni 2012 in Berlin. Mit Lang Lang und der Jazzlegende Herbie Hancock sowie dem Orchester des Schleswig-Holstein Musikfestivals unter der Leitung des indonesischen Dirigenten Jahja Ling. Das Programm der spektakulären Geburtstagsparty des "bekanntesten Pianisten der Welt" (CNN).
Качество видео: HDTV
Формат/Контейнер: MKV
Видео кодек: H.264
Аудио кодек: AC3
Видео поток: Codec: V_MPEG4/ISO/AVC, 1920x1080i, 10.4 Mbps, 25 fps
Аудио поток: AC3, Chann. 2, SR:48 KHz, BR: 384 Kb/s

МедиаИнфо/СкриншотыОтчёт MediaInfo

GeneralComplete name : Lang Lang feat Hancock.mkvFormat : MatroskaFormat version : Version 2File size : 6.26 GiBDuration : 1h 21mnOverall bit rate : 11.0 MbpsWriting application : Lavf53.21.1Writing library : Lavf53.21.1
VideoID : 1Format : AVCFormat/Info : Advanced Video CodecFormat profile : High@L4.0Format settings, CABAC : YesFormat settings, ReFrames : 4 framesFormat settings, GOP : M=4, N=32Codec ID : V_MPEG4/ISO/AVCDuration : 1h 21mnBit rate : 10.4 MbpsWidth : 1 920 pixelsHeight : 1 080 pixelsDisplay aspect ratio : 16:9Frame rate : 25.000 fpsStandard : ComponentColor space : YUVChroma subsampling : 4:2:0Bit depth : 8 bitsScan type : InterlacedScan order : Top Field FirstBits/(Pixel*Frame) : 0.200Stream size : 5.91 GiB (95%)Language : EnglishDefault : YesForced : NoColor primaries : BT.709-5, BT.1361, IEC 61966-2-4, SMPTE RP177Transfer characteristics : BT.709-5, BT.1361Matrix coefficients : BT.709-5, BT.1361, IEC 61966-2-4 709, SMPTE RP177
AudioID : 2Format : AC-3Format/Info : Audio Coding 3Mode extension : CM (complete main)Codec ID : A_AC3Duration : 1h 21mnBit rate mode : ConstantBit rate : 384 KbpsChannel(s) : 2 channelsChannel positions : Front: L RSampling rate : 48.0 KHzBit depth : 16 bitsDelay relative to video : 43msStream size : 224 MiB (4%)

Lang Lang

• 125 Years of the Het Concertgebouw Amsterdam - Gala concert (HD) http://rutracker.org/forum/viewtopic.php?t=4917334
• Сергей В. Рахманинов, Frederic Chopin, Пётр И. Чайковский-Gala from Berlin (HD) http://rutracker.org/forum/viewtopic.php?t=4993508



Показать сообщения:    

Текущее время: 19-Янв 22:18

Часовой пояс: UTC + 3


Вы не можете начинать темы
Вы не можете отвечать на сообщения
Вы не можете редактировать свои сообщения
Вы не можете удалять свои сообщения
Вы не можете голосовать в опросах
Вы не можете прикреплять файлы к сообщениям
Вы не можете скачивать файлы