Торжественное открытие новой сцены Мариинского театра (Василий Бархатов) [2013, Опера, Балет, HDTV 1080i]


 

[Цитировать]

Торжественное открытие новой сцены Мариинского театра
Год выпуска: 2013
Страна: Россия
Жанр: Опера, Балет
Продолжительность: 02:05:21
Перевод: Не требуется
Русские субтитры: нет
Режиссер: Василий Бархатов
Описание: Открытие новой сцены, оснащенной самыми современными и совершенными технологиями, знаменует наступление новой эпохи в истории Мариинского театра. Благодаря уникальным возможностям новой сцены Мариинский театр станет театрально-концертным комплексом, не имеющим аналогов в России. На торжественном Гала открытия под управлением Валерия Гергиева выступят знаменитые артисты – инструменталисты, солисты оперы и балета – включая Ильдара Абдразакова, Юрия Башмета, Ольгу Бородину, Диану Вишнёву, Пласидо Доминго, Леонидаса Кавакоса, Екатерину Кондаурову, Ульяну Лопаткину, Алексея Маркова, Дениса Мацуева, Анну Нетребко, Евгения Никитина, Рене Папе, Михаила Петренко, Екатерину Семенчук, Сергея Семишкура, Владимира Шклярова, оркестра Мариинского театра, солистов Академии молодых певцов, детского хора, а также юных учеников Академии русского балета. Участие артистов разных поколений станет символом связи более чем двухсотлетней истории театра с его лидирующей позицией в современном музыкальном мире. Режиссер постановщик Василий Бархатов, художник Зиновий Марголин, художник по свету Дамир Исмагилов.
Внимние: В записи есть битые кадры (в общей сложности 12 секунд).
Доп. информация: Релиз -

Рип чистый. Без посторонних надписей. Выкладывается как есть.
Качество: HDTV 1080i
Контейнер: TS
Видео кодек: AVC
Аудио кодек: MP2
Видео: 1920x1080 (16:9) 25.000 fps 7 516 Kbps, 0.145 bit/pixel
Аудио: MP2 192 Kbps, 2 channels

Скриншоты


Скринлист

MI

GeneralID : 1 (0x1)Complete name : J:\ВЫКЛАДКА\HDTV\Музыка\Торжественное открытие новой сцены Мариинского театра (2013, Балет, Опера, HDTV) (MYDIMKA).tsFormat : MPEG-TSFile size : 7.42 GiBDuration : 2h 5mnOverall bit rate mode : VariableOverall bit rate : 8 474 Kbps
VideoID : 2931 (0xB73)Menu ID : 1 (0x1)Format : AVCFormat/Info : Advanced Video CodecFormat profile : High@L4.0Format settings, CABAC : YesFormat settings, ReFrames : 3 framesCodec ID : 27Duration : 2h 5mnBit rate : 7 861 KbpsWidth : 1 920 pixelsHeight : 1 080 pixelsDisplay aspect ratio : 16:9Frame rate : 25.000 fpsColor space : YUVChroma subsampling : 4:2:0Bit depth : 8 bitsScan type : MBAFFBits/(Pixel*Frame) : 0.152Stream size : 6.88 GiB (93%)
AudioID : 2932 (0xB74)Menu ID : 1 (0x1)Format : MPEG AudioFormat version : Version 1Format profile : Layer 2Mode : Joint stereoMode extension : Intensity Stereo + MS StereoCodec ID : 3Duration : 2h 5mnBit rate mode : ConstantBit rate : 192 KbpsChannel(s) : 2 channelsSampling rate : 48.0 KHzCompression mode : LossyStream size : 172 MiB (2%)Language : Russian
TextID : 2934 (0xB76)-888Menu ID : 1 (0x1)Format : Teletext SubtitleLanguage : Russian
MenuID : 2930 (0xB72)Menu ID : 1 (0x1)Duration : 2h 5mnList : 2931 (0xB73) (AVC) / 2932 (0xB74) (MPEG Audio, Russian) / 2934 (0xB76) ()Language : / Russian



Показать сообщения:    

Текущее время: 08-Дек 09:04

Часовой пояс: UTC + 3


Вы не можете начинать темы
Вы не можете отвечать на сообщения
Вы не можете редактировать свои сообщения
Вы не можете удалять свои сообщения
Вы не можете голосовать в опросах
Вы не можете прикреплять файлы к сообщениям
Вы не можете скачивать файлы