Ludwig van Beethoven - Symphonie Nr. 6 "Pastorale"; Gustav Mahler - "Des Knaben Wunderhorn" (Royal Concertgebouw Orchestra, Bernard Haitink, Christianne Stotijn) [2009, Classical / Orchestral / Vocal, HDTV 720p]


 

[Цитировать]

LUDWIG VAN BEETHOVEN
Symphonie Nr. 6 "Pastorale", op. 68
GUSTAV MAHLER
Des Knaben Wunderhorn

-
Год выпуска: 2009
Жанр: Classical / Orchestral / Vocal
Продолжительность: 00:59:12
Субтитры: немецкий язык
Режиссер: Hans Hulscher
Musicians:
ROYAL CONCERTGEBOUW ORCHESTRA
BERNARD HAITINK - musikalische leitung
CHRISTIANNE STOTIJN - mezzosopran
Треклист:
LUDWIG VAN BEETHOVEN
• Symphonie Nr. 6 "Pastorale", op. 68
GUSTAV MAHLER
• Des Knaben Wunderhorn
- Des Antonius von Padua Fischpredigt
- Das iridische Leben
- Rheinlegendchen
- Wer hat dies Liedlein erdacht
Доп. информация:
Concertgebouw Amsterdam
Festkonzert aus Amsterdam arte.tv
Качество видео: HDTV 720p
Контейнер: MKV
Видео кодек: H.264
Аудио кодек: AC3
Видео поток: 11.7 Mbps, 1280*720 (16:9), at 50.000 fps, AVC (High@L3.2) (CABAC / 4 Ref Frames)
Аудио поток: German, 448 Kbps, 48.0 KHz, 16 bits, 2 channels, AC-3
Источник: Digital Satellite > SkyStar HD2 (TechniSat) > ts > raw data to HDD > Cypheros TS-Doctor > mkv

MediaInfo

GeneralUnique ID : 247218330760651028614764912554145536280 (0xB9FC84C30EA4526F84DB3C75D06CD918)Complete name : K:\rutracker.org_HD\arte HD_Beethoven Symphonie Nr. 6 ''Pastorale'' (Bernard Haitink) 2009.mkvFormat : MatroskaFormat version : Version 1File size : 5.12 GiBDuration : 59mn 12sOverall bit rate : 12.4 MbpsEncoded date : UTC 2013-04-22 06:04:39Writing library : Haali DirectShow Matroska Muxer 1.9.42.1
VideoID : 1Format : AVCFormat/Info : Advanced Video CodecFormat profile : High@L3.2Format settings, CABAC : YesFormat settings, ReFrames : 4 framesFormat settings, GOP : M=4, N=16Codec ID : V_MPEG4/ISO/AVCDuration : 59mn 12sBit rate : 11.7 MbpsWidth : 1 280 pixelsHeight : 720 pixelsDisplay aspect ratio : 16:9Frame rate : 50.000 fpsColor space : YUVChroma subsampling : 4:2:0Bit depth : 8 bitsScan type : ProgressiveBits/(Pixel*Frame) : 0.254Stream size : 4.84 GiB (94%)Title : PID 5111 VideoDefault : NoForced : No
AudioID : 2Format : AC-3Format/Info : Audio Coding 3Mode extension : CM (complete main)Codec ID : A_AC3Duration : 59mn 12sBit rate mode : ConstantBit rate : 448 KbpsChannel(s) : 2 channelsChannel positions : Front: L RSampling rate : 48.0 KHzBit depth : 16 bitsCompression mode : LossyStream size : 190 MiB (4%)Title : AC3Language : GermanDefault : YesForced : No



Показать сообщения:    

Текущее время: 11-Дек 14:56

Часовой пояс: UTC + 3


Вы не можете начинать темы
Вы не можете отвечать на сообщения
Вы не можете редактировать свои сообщения
Вы не можете удалять свои сообщения
Вы не можете голосовать в опросах
Вы не можете прикреплять файлы к сообщениям
Вы не можете скачивать файлы