Camille Saint-Saens Sinfonie Nr. 3 (Artem Chatschaturow, Jun Markl, MDR Sinfonieorchester) [2010, Classical / Orchestral / Concert, HDTV 720p]


 

[Цитировать]

Saint-Saëns aus Kaliningrad
CAMILLE SAINT-SAËNS
Sinfonie Nr. 3 c-Moll op. 78 »Orgelsinfonie«

-
Год выпуска: 2010
Жанр: Classical / Orchestral / Concert
Продолжительность: 00:42:36
Режиссер: Tilo Krause
Musicians:
MDR SINFONIEORCHESTER
JUN MÄRKL - dirigent
ARTEM CHATSCHATUROW - orgel
Треклист:
CAMILLE SAINT-SAËNS (1835-1921)
• Sinfonie Nr. 3 c-Moll op. 78 »Orgelsinfonie«
RICHARD WAGNER (1813-1883)
• Vorspiel zum 3. Akt »Lohengrin«
Доп. информация:
Aus dem Köningsberger Dom in Kaliningrad (Russland)
Camille Saint-Saens Sinfonie Nr. 3 c-Moll op. 78 »Orgelsinfonie« arte.tv
Качество видео: HDTV 720p
Контейнер: MKV
Видео кодек: H.264
Аудио кодек: AC3
Видео поток: 12.2 Mbps, 1280*720 (16:9), at 50.000 fps, AVC (High@L3.2) (CABAC / 4 Ref Frames)
Аудио поток: German, 448 Kbps, 48.0 KHz, 16 bits, 2 channels, AC-3
Источник: Digital Satellite > SkyStar HD2 (TechniSat) > ts > raw data to HDD > Cypheros TS-Doctor > mkv

MediaInfo

GeneralUnique ID : 129784859502646173091944801320462721614 (0x61A3A79C05137F047798DA277A2C224E)Complete name : K:\rutracker.org_HD\arte HD_Camille Saint-Saens Sinfonie Nr. 3 (Jun Markl) 2010.mkvFormat : MatroskaFormat version : Version 1File size : 3.83 GiBDuration : 42mn 36sOverall bit rate : 12.9 MbpsEncoded date : UTC 2013-04-10 16:28:28Writing library : Haali DirectShow Matroska Muxer 1.9.42.1
VideoID : 1Format : AVCFormat/Info : Advanced Video CodecFormat profile : High@L3.2Format settings, CABAC : YesFormat settings, ReFrames : 4 framesFormat settings, GOP : M=4, N=16Codec ID : V_MPEG4/ISO/AVCDuration : 42mn 36sBit rate : 12.2 MbpsWidth : 1 280 pixelsHeight : 720 pixelsDisplay aspect ratio : 16:9Frame rate : 50.000 fpsColor space : YUVChroma subsampling : 4:2:0Bit depth : 8 bitsScan type : ProgressiveBits/(Pixel*Frame) : 0.264Stream size : 3.62 GiB (95%)Title : PID 5111 VideoDefault : NoForced : No
AudioID : 2Format : AC-3Format/Info : Audio Coding 3Mode extension : CM (complete main)Codec ID : A_AC3Duration : 42mn 36sBit rate mode : ConstantBit rate : 448 KbpsChannel(s) : 2 channelsChannel positions : Front: L RSampling rate : 48.0 KHzBit depth : 16 bitsCompression mode : LossyStream size : 137 MiB (3%)Title : AC3Language : GermanDefault : YesForced : No



Показать сообщения:    

Текущее время: 10-Дек 23:29

Часовой пояс: UTC + 3


Вы не можете начинать темы
Вы не можете отвечать на сообщения
Вы не можете редактировать свои сообщения
Вы не можете удалять свои сообщения
Вы не можете голосовать в опросах
Вы не можете прикреплять файлы к сообщениям
Вы не можете скачивать файлы