Peter Iljitsch Tschaikowsky (Пётр Ильич Чайковский) Symphonie Nr. 4 f-Moll Opus 36 (Александр Ведерников, Alexander Vedernikow, Orchestre Philharmonique de Radio France) [2012, Classical / Orchestral / Concert, HDTV 720p]


 

[Цитировать]

PETER ILJITSCH TSCHAIKOWSKY
Symphonie Nr. 4 f-Moll Opus 36

-
Год выпуска: 2012
Жанр: Classical / Orchestral / Concert
Продолжительность: 00:43:39
Режиссер: Emmanuelle Franc
Исполнители:
ORCHESTRE PHILHARMONIQUE DE RADIO FRANCE
dirigé par ALEXANDER VEDERNIKOW
Треклист:
PETER ILJITSCH TSCHAIKOWSKY
• Symphonie Nr. 4 f-Moll Opus 36
Доп. информация:
Enregistré Salle Pleyel le 05 octobre 2012
Peter Iljitsch Tschaikowsky Symphonie Nr. 4 f-Moll arte.tv
АЛЕКСАНДР АЛЕКСАНДРОВИЧ ВЕДЕРНИКОВ материал из Википедии – свободной энциклопедии
Качество видео: HDTV 720p
Контейнер: MKV
Видео кодек: H.264
Аудио кодек: AC3
Видео поток: 9 448 Kbps, 1280*720 (16:9), at 50.000 fps, AVC (High@L3.2) (CABAC / 4 Ref Frames)
Аудио поток: German, 448 Kbps, 48.0 KHz, 16 bits, 2 channels, AC-3
Источник: Digital Satellite > SkyStar HD2 (TechniSat) > ts > raw data to HDD > Cypheros TS-Doctor > mkv

MediaInfo / BDInfo

GeneralUnique ID : 188162405885520690573478027081462671023 (0x8D8EC2DD5DDC6CB214EDFF7115AD66AF)Complete name : K:\rutracker.org_HD\arte HD_Tschaikowsky Symphonie Nr. 4 (Alexander Vedernikow) 2012.mkvFormat : MatroskaFormat version : Version 1File size : 3.08 GiBDuration : 43mn 39sOverall bit rate : 10.1 MbpsEncoded date : UTC 2013-04-09 18:10:08Writing library : Haali DirectShow Matroska Muxer 1.9.42.1
VideoID : 1Format : AVCFormat/Info : Advanced Video CodecFormat profile : High@L3.2Format settings, CABAC : YesFormat settings, ReFrames : 4 framesFormat settings, GOP : M=4, N=16Codec ID : V_MPEG4/ISO/AVCDuration : 43mn 39sBit rate : 9 448 KbpsWidth : 1 280 pixelsHeight : 720 pixelsDisplay aspect ratio : 16:9Frame rate : 50.000 fpsColor space : YUVChroma subsampling : 4:2:0Bit depth : 8 bitsScan type : ProgressiveBits/(Pixel*Frame) : 0.205Stream size : 2.88 GiB (94%)Title : PID 5111 VideoDefault : NoForced : No
AudioID : 2Format : AC-3Format/Info : Audio Coding 3Mode extension : CM (complete main)Codec ID : A_AC3Duration : 43mn 39sBit rate mode : ConstantBit rate : 448 KbpsChannel(s) : 2 channelsChannel positions : Front: L RSampling rate : 48.0 KHzBit depth : 16 bitsCompression mode : LossyStream size : 140 MiB (4%)Title : AC3Language : GermanDefault : YesForced : No



Показать сообщения:    

Текущее время: 10-Дек 15:44

Часовой пояс: UTC + 3


Вы не можете начинать темы
Вы не можете отвечать на сообщения
Вы не можете редактировать свои сообщения
Вы не можете удалять свои сообщения
Вы не можете голосовать в опросах
Вы не можете прикреплять файлы к сообщениям
Вы не можете скачивать файлы