Europa Konzert from Madrid 2011 (Berliner Philarmoniker, Sir Simon Rattle, Canizares) (Chabrier, Rodrigo, Рахманинов) [2011, Classical, BDRip, 1080p]


 

[Цитировать]

Europa Konzert from Madrid 2011 (Berliner Philarmoniker, Sir Simon Rattle, Cañizares)
-Год выпуска: 2011
Лейбл: EuroArts
Страна-производитель: Austria
Жанр: Classical
Продолжительность: 01:36:45
Режиссер: Rhodri Huw
-Исполнители:
Berliner Philarmoniker
Sir Simon Rattle, conductor
Juan Manuel Cañizares, guitar
-Треклист:
1. Emmanuel Chabrier - España
2. Joaquín Rodrigo - Concierto de Aranjuez
3. Sergey Rachmaninov - Symphony No. 2 in E minor, Op. 27
-Описание: For twenty years the Berliner Philarmoniker has celebrated its 1882 founding with a concert at a major European venue, and the 2011 event takes place at the magnificent Teatro Real in Madrid. The renowned orchestra, under the baton of Sir Simon Rattle, performs Joaquín Rodrigo's beloved Concierto de Aranjuez, Emmanuel Chabrier's exuberant España, and Sergey Rachmaninov's dramatic Second Symphony. It is joined for the Concierto by the famous flamenco guitarist Cañizares, whose virtuosity and sensitivity are given full opportunity to shine in this multi-faceted and subtle work.
Доп. информация: Live recording from the Teatro Real , Madrid, 1 May 2011-Качество видео: BDRip
Формат/Контейнер: MKV
Видео кодек: MPEG4
Аудио кодек: DTS
Видео поток: 1904x1080 (16:9) | MPEG-4 AVC Video | 8196 Kbps | 29.97 fps
Аудио поток: DTS 5.1| 1509 Kbps | 48.0 KHz | 24 bits

-

Скриншоты

MediaInfo

General
Unique ID: 235416644985976748560544091489732100457 (0xB11B98BAAF06E5E988D490FFE10B8169)
Complete name: C:\Europa Konzert from Madrid 2011.mkv
Format: Matroska
Format version: Version 2
File size: 6.56 GiB
Duration: 1h 36mn
Overall bit rate: 9 703 Kbps
Encoded date: UTC 2012-12-01 03:44:42
Writing application: mkvmerge v5.7.0 ('The Whirlwind') built on Jul 8 2012 20:08:51
Writing library: libebml v1.2.3 + libmatroska v1.3.0
Video
ID: 1
Format: AVC
Format/Info: Advanced Video Codec
Format profile: High@L4.1
Format settings, CABAC: Yes
Format settings, ReFrames: 4 frames
Codec ID: V_MPEG4/ISO/AVC
Duration: 1h 36mn
Bit rate: 8 196 Kbps
Width: 1 904 pixels
Height: 1 080 pixels
Display aspect ratio: 16:9
Frame rate mode: Constant
Frame rate: 29.970 fps
Color space: YUV
Chroma subsampling: 4:2:0
Bit depth: 8 bits
Scan type: Progressive
Bits/(Pixel*Frame): 0.133
Stream size: 5.41 GiB (82%)
Writing library: x264 core 129 r2230 1cffe9f
Encoding settings: cabac=1 / ref=4 / deblock=1:0:0 / analyse=0x3:0x133 / me=umh / subme=8 / psy=1 / psy_rd=1.00:0.00 / mixed_ref=1 / me_range=16 / chroma_me=1 / trellis=1 / 8x8dct=1 / cqm=0 / deadzone=21,11 / fast_pskip=0 / chroma_qp_offset=-2 / threads=12 / lookahead_threads=2 / sliced_threads=0 / nr=0 / decimate=1 / interlaced=0 / bluray_compat=0 / constrained_intra=0 / bframes=3 / b_pyramid=2 / b_adapt=1 / b_bias=0 / direct=1 / weightb=1 / open_gop=0 / weightp=2 / keyint=250 / keyint_min=25 / scenecut=40 / intra_refresh=0 / rc_lookahead=40 / rc=2pass / mbtree=1 / bitrate=8196 / ratetol=1.0 / qcomp=0.60 / qpmin=0 / qpmax=69 / qpstep=4 / cplxblur=20.0 / qblur=0.5 / ip_ratio=1.40 / aq=1:1.00
Language: English
Default: Yes
Forced: No
Audio
ID: 2
Format : DTS
Format/Info: Digital Theater Systems
Mode: 16
Format settings, Endianness: Big
Codec ID: A_DTS
Duration: 1h 36mn
Bit rate mode: Constant
Bit rate: 1 509 Kbps
Channel(s): 6 channels
Channel positions: Front: L C R, Side: L R, LFE
Sampling rate: 48.0 KHz
Bit depth: 24 bits
Compression mode: Lossy
Stream size: 1.02 GiB (16%)
Default: Yes
Forced: No
Menu
00:00:00.000: en:00:00:00.000
00:00:59.993: en:00:00:59.993
00:08:07.387: en:00:08:07.387
00:14:31.404: en:00:14:31.404
00:26:43.635: en:00:26:43.635
00:33:40.018: en:00:33:40.018
00:53:13.424: en:00:53:13.424
01:03:34.210: en:01:03:34.210
01:19:16.752: en:01:19:16.752
01:34:22.290: en:01:34:22.290



Показать сообщения:    

Текущее время: 20-Янв 14:52

Часовой пояс: UTC + 3


Вы не можете начинать темы
Вы не можете отвечать на сообщения
Вы не можете редактировать свои сообщения
Вы не можете удалять свои сообщения
Вы не можете голосовать в опросах
Вы не можете прикреплять файлы к сообщениям
Вы не можете скачивать файлы