Gustav Mahler - Sinfonie Nr.1 D-Dur (Gustavo Dudamel, Los Angeles Philharmonic Orchestra) [2009, Classical / Orchestral / Concert, HDTV 720p]


 

[Цитировать]

Gustav Mahler
Sinfonie Nr.1 D-Dur

-
Год выпуска: 2009
Жанр: Classical / Orchestral / Concert
Продолжительность: 00:59:42
Режиссер: Brian Large
Исполнители:
Gustavo Dudamel - direction musicale
LOS ANGELES PHILHARMONIC ORCHESTRA
Треклист:
GUSTAV MAHLER
• Sinfonie Nr.1 D-Dur
Доп. информация:
Walt Disney Concert Hall, Los Angeles
GUSTAVO DUDAMEL Official Site
GUSTAVO DUDAMEL from Wikipedia, the free encyclopedia
-
Качество видео: HDTV 720p
Формат/Контейнер: MKV
Видео кодек: H.264
Аудио кодек: AC3
Видео поток: 12.1 Mbps, 1280*720 (16:9), at 50.000 fps, AVC (High@L3.2) (CABAC / 4 Ref Frames)
Аудио поток: German, 448 Kbps, 48.0 KHz, 16 bits, 2 channels, AC-3
Источник: Digital Satellite > SkyStar HD2 (TechniSat) > ts > raw data to HDD > Cypheros TS-Doctor > mkv

MediaInfo

GeneralUnique ID : 308930357358035521998393660338000069413 (0xE869D295B0FD903D0842B2F7371F8325)Complete name : K:\rutracker.org_HD\arte HD_Gustav Mahler Sinfonie Nr. 1 (Gustavo Dudamel) 2009.mkvFormat : MatroskaFormat version : Version 1File size : 5.32 GiBDuration : 59mn 42sOverall bit rate : 12.8 MbpsEncoded date : UTC 2013-04-01 18:16:57Writing library : Haali DirectShow Matroska Muxer 1.9.42.1
VideoID : 1Format : AVCFormat/Info : Advanced Video CodecFormat profile : High@L3.2Format settings, CABAC : YesFormat settings, ReFrames : 4 framesCodec ID : V_MPEG4/ISO/AVCDuration : 59mn 42sBit rate : 12.1 MbpsWidth : 1 280 pixelsHeight : 720 pixelsDisplay aspect ratio : 16:9Frame rate : 50.000 fpsColor space : YUVChroma subsampling : 4:2:0Bit depth : 8 bitsScan type : ProgressiveBits/(Pixel*Frame) : 0.262Stream size : 5.03 GiB (94%)Title : PID 5111 VideoDefault : NoForced : No
AudioID : 2Format : AC-3Format/Info : Audio Coding 3Mode extension : CM (complete main)Codec ID : A_AC3Duration : 59mn 42sBit rate mode : ConstantBit rate : 448 KbpsChannel(s) : 2 channelsChannel positions : Front: L RSampling rate : 48.0 KHzBit depth : 16 bitsCompression mode : LossyStream size : 191 MiB (4%)Title : AC3Language : GermanDefault : YesForced : No



Показать сообщения:    

Текущее время: 05-Дек 15:33

Часовой пояс: UTC + 3


Вы не можете начинать темы
Вы не можете отвечать на сообщения
Вы не можете редактировать свои сообщения
Вы не можете удалять свои сообщения
Вы не можете голосовать в опросах
Вы не можете прикреплять файлы к сообщениям
Вы не можете скачивать файлы