Joseph Haydn - Ariadne aux Naxos; Berenice, che fai; Sinfonie N 104 D-Dur London (Louis Langree, Magdalena Kozena, Camerata Salzburg) [2009, Classical / Vocal / Orchestral, HDTV 720p]


 

[Цитировать]

Aix en Concert. Konzertsommer in Aix-en-Provence
Joseph Haydn
Ariadne aux Naxos
Berenice, che fai
Sinfonie N 104 D-Dur London

-
Год выпуска: 2009
Жанр: Classical / Vocal / Orchestral
Продолжительность: 01:06:00
Режиссер: Andy Sommer, Corentin Leconte
Musicians:
LOUIS LANGRÉE - musikalische leitung
MAGDALENA KOŽENÁ - mezzosopran
CAMERATA SALZBURG
Треклист:
Joseph Haydn
• Ariadne aux Naxos, Kantate, Hob. XXVIb : 2
• Berenice, che fai, Kantate / Scena di Berenice, Hob. XXIVa : 10
• Sinfonie N 104 D-Dur London, Hob. I : 104
Доп. информация:
Aufnahme von 10. Julie 2009 während der Europäischen Musikakademie
des 61. Festivals von Aix-en-Provence

Aix en Concert. Konzertsommer in Aix-en-Provence arte.tv
MAGDALENA KOŽENÁ Official Site
MAGDALENA KOŽENÁ from Wikipedia, the free encyclopedia
Качество видео: HDTV 720p
Контейнер: MKV
Видео кодек: H.264
Аудио кодек: AC3
Видео поток: 11.6 Mbps, 1280*720 (16:9), at 50.000 fps, AVC (High@L3.2) (CABAC / 4 Ref Frames)
Аудио поток: German, 448 Kbps, 48.0 KHz, 16 bits, 2 channels, AC-3
Источник: Digital Satellite > SkyStar HD2 (TechniSat) > ts > raw data to HDD > Cypheros TS-Doctor > mkv

MediaInfo

GeneralUnique ID : 255656355446813799318597598994642945923 (0xC0559F7FBB8203049ED64805926AC783)Complete name : K:\rutracker.org_HD\arte HD_Aix en Concert 2009.mkvFormat : MatroskaFormat version : Version 2File size : 5.66 GiBDuration : 1h 6mnOverall bit rate : 12.3 MbpsWriting application : Lavf52.64.2Writing library : Lavf52.64.2
VideoID : 1Format : AVCFormat/Info : Advanced Video CodecFormat profile : High@L3.2Format settings, CABAC : YesFormat settings, ReFrames : 4 framesCodec ID : V_MPEG4/ISO/AVCDuration : 1h 6mnBit rate : 11.6 MbpsWidth : 1 280 pixelsHeight : 720 pixelsDisplay aspect ratio : 16:9Frame rate : 50.000 fpsColor space : YUVChroma subsampling : 4:2:0Bit depth : 8 bitsScan type : ProgressiveBits/(Pixel*Frame) : 0.252Stream size : 5.34 GiB (94%)Default : YesForced : No
AudioID : 2Format : AC-3Format/Info : Audio Coding 3Mode extension : CM (complete main)Codec ID : A_AC3Duration : 1h 6mnBit rate mode : ConstantBit rate : 448 KbpsChannel(s) : 2 channelsChannel positions : Front: L RSampling rate : 48.0 KHzBit depth : 16 bitsCompression mode : LossyStream size : 212 MiB (4%)Language : GermanDefault : YesForced : No



Показать сообщения:    

Текущее время: 03-Дек 01:15

Часовой пояс: UTC + 3


Вы не можете начинать темы
Вы не можете отвечать на сообщения
Вы не можете редактировать свои сообщения
Вы не можете удалять свои сообщения
Вы не можете голосовать в опросах
Вы не можете прикреплять файлы к сообщениям
Вы не можете скачивать файлы