Wolfgang Amadeus Mozart - Konzert Nr.9 Es-Dur "Jeunehomme" fur Klavier und Orchester KV 271; Robert Schumann - Konzert a-Moll fur Violoncello und Orchester, op. 129 (Maria Joao Pires, Pavel Gomziakov, Augustin Duman) [2008, Classical, HDTV


 

[Цитировать]

Concert Mozart - Schumann
WOLFGANG AMADEUS MOZART
Konzert Nr.9 Es-Dur "Jeunehomme" für Klavier und Orchester KV 271
ROBERT SCHUMANN
Konzert a-Moll für Violoncello und Orchester, op. 129

-
Год выпуска: 2008
Жанр: Classical / Orchestral / Concert
Продолжительность: 01:02:00
Язык: французский, синхр. перевод на немецкий
Перевод: нет
Субтитры: нет
Режиссер: Benoît Vlietinck
Исполнители:
MARIA JOÃO PIRES - piano
PAVEL GOMZIAKOV - violoncello
AUGUSTIN DUMAN - direction musicale
L'ORCHESTRE ROYAL DE CHAMBRE DE WALLONIE
Треклист:
WOLFGANG AMADEUS MOZART
• Konzert Nr.9 Es-Dur “Jeunehomme” für Klavier und Orchester KV 271
ROBERT SCHUMANN
• Konzert a-Moll für Violoncello und Orchester, op. 129
Доп. информация:
Aufgezeichnet in Flagey - Brüssel
... в релизе есть небольшое интервью с Maria João Pires
(французский язык, синхр. перевод на немецкий) ...
Maria João Pires und Pavel Gomziakov spielen Mozart und Schumann arte.tv
MARIA JOÃO PIRES from Wikipedia, the free encyclopedia
PAVEL GOMZIAKOV mariinsky.ru
PAVEL GOMZIAKOV omcroxonmanagement.co.uk
Качество видео: HDTV 720p
Контейнер: MKV
Видео кодек: H.264
Аудио кодек: AC3
Видео поток: 12.1 Mbps, 1280*720 (16:9), at 50.000 fps, AVC (High@L3.2) (CABAC / 4 Ref Frames)
Аудио поток: German, 448 Kbps, 48.0 KHz, 16 bits, 2 channels, AC-3
Источник: Digital Satellite > SkyStar HD2 (TechniSat) > ts > raw data to HDD > Cypheros TS-Doctor > mkv

MediaInfo

GeneralUnique ID : 330160437806949147299241457344596299061 (0xF862965D6287FE26399D7F07D1BE4D35)Complete name : K:\rutracker.org_HD\arte HD_Concert Mozart - Schumann 2008.mkvFormat : MatroskaFormat version : Version 1File size : 5.56 GiBDuration : 1h 2mnOverall bit rate : 12.8 MbpsEncoded date : UTC 2013-03-25 10:28:51Writing library : Haali DirectShow Matroska Muxer 1.9.42.1
VideoID : 1Format : AVCFormat/Info : Advanced Video CodecFormat profile : High@L3.2Format settings, CABAC : YesFormat settings, ReFrames : 4 framesCodec ID : V_MPEG4/ISO/AVCDuration : 1h 2mnBit rate : 12.1 MbpsWidth : 1 280 pixelsHeight : 720 pixelsDisplay aspect ratio : 16:9Frame rate : 50.000 fpsColor space : YUVChroma subsampling : 4:2:0Bit depth : 8 bitsScan type : ProgressiveBits/(Pixel*Frame) : 0.262Stream size : 5.25 GiB (94%)Title : PID 5111 VideoDefault : NoForced : No
AudioID : 2Format : AC-3Format/Info : Audio Coding 3Mode extension : CM (complete main)Codec ID : A_AC3Duration : 1h 2mnBit rate mode : ConstantBit rate : 448 KbpsChannel(s) : 2 channelsChannel positions : Front: L RSampling rate : 48.0 KHzBit depth : 16 bitsCompression mode : LossyStream size : 200 MiB (4%)Title : AC3Language : GermanDefault : YesForced : No



Показать сообщения:    

Текущее время: 07-Дек 21:17

Часовой пояс: UTC + 3


Вы не можете начинать темы
Вы не можете отвечать на сообщения
Вы не можете редактировать свои сообщения
Вы не можете удалять свои сообщения
Вы не можете голосовать в опросах
Вы не можете прикреплять файлы к сообщениям
Вы не можете скачивать файлы