Юбилейный концерт Юрия Башмета (эфир 24.01.2013) (Первый HD) [2013 г., Classic, HDTV 1080i]


 

[Цитировать]

Юбилейный концерт Юрия Башмета
Год выпуска : 2013
Страна : Россия
Жанр : Classic
Язык : Русский
Продолжительность : 02:08:03-Описание: 24 января 2013 года, одному из самых известных российских артистов в мире, Маэстро Юрию Башмету, исполняется 60 лет. В связи с предстоящим юбилеем в Москве пройдет Праздничный фестиваль со звездным составом участников: Анна–Софи Муттер, Мишель Порталь, Валерий Гергиев, Денис Мацуев, Иосиф Кобзон, Евгений Миронов, Чулпан Хаматова, Леонид Ярмольник, Тамара Гвердцители, Максим Венгеров, Жан – Люк Понти, Олег Майзенберг и многие др. Концерты в рамках празднования юбилея знаменитого маэстро пройдут в Большом зале консерватории и Концертном зале им. П.И. Чайковского. В программе концерта также примут участие Камерный ансамбль "Солисты Москвы" и Государственный симфонический оркестр "Новая Россия".-Юбилейный концерт Юрия Башмета ● 24 января | Продолжительность: 02:08:03 | Треклист:Внимание !!! Слова благодарности пользователю Keyboard за создание треклиста !!!
1. И. Брамс – Квинтет си минор, соч.115, 1 часть – Камерный оркестр «Солисты Москвы», солист Юрий Башмет
2. «Happy Birthday», вариации для двух скрипок – Солисты: Виктор Третьяков, Наталья Лихопой.
3. М. Блантер – «Джон Грей» - Олег Меньшиков, духовой оркестр Олега Меньшикова
4. Ф. Черчилль - «The farewell waltz» - духовой оркестр Олега Меньшикова
5. К. Сен-Санс – «Лебедь» - Ульяна Лопаткина, Юрий Башмет, Михаил Мунтян
6. Р. Шуман – Квартет для фртепиано, скрипки, альта и виолончели соч.47 Andante cantabile- Ксения Башмет, Алена Баева, Юрий Башмет. Александр Бузлов
7. народная еврейская песня (русская версия С.Ковальский) – Ich Hob Dich Zifeel Lieb – Сопрано 10, Юрий Башмет
8. Д. Шостакович – Концерт №1 для фортепиано с оркестром. Allegro con brio. – Денис Мацуев, Сергей Стрищенко
9. Д. Гершвин – «The Man I Love» - Лариса Долина, Денис Мацуев
10. С. Прокофьев – «Монтекки и Капулетти» (из сюиты №2 из балета «Ромео и Джульетта») – симфонический оркестр «Новая Россия», дирижер Юрий Башмет
11. А. Бабаджанян, стихи Р. Рождественского - «Ноктюрн» - Иосиф Кобзон
12. А. Чайковский – «Стан Тамерлана» - Симфонический оркестр республики Татарстан, дирижер Александр Сладковский
13. Е. Кобылянский, стихи С. Осиашвили – «Мамины глаза» - Тамара Гвердцители
14. П. Чайковский – Концерт для скрипки с оркестром. Финал – Симфонический оркестр «новая Россия», дирижер Юрий Башмет
15. А. Мальцис - Концерт для скрипки и альта с оркестром. Скерцо – Алена Баева, Юрий Башмет, симфонический оркестр «Новая Россия», дирижер Валентин Урюпин
16. А. Пьяццола – Танго «???» - Мишель Порталь
17. Ж.-Л. Понти «To & Fro» - Жан-Люк Понти, Юрий Башмет
18. Отрывок из спектакля «Рассказы Шукшина» - Евгений Миронов и Чулпан Хаматова
19. Г. Берлиоз – «Гарольд в Италии». Финал – Симфонический оркестр «Новая Россия», солист и дирижер Юрий Башмет
[spoiler="Скринлист">

Скриншоты [spoiler="Скринлист

MI"]
General #1
ID : 1 (0x1)
Complete name : Юбилейный концерт к 60-летию Юрия Башмета_HDTV by Kaddafi.ts
Format : MPEG-TS
File size : 10.7 GiB
Duration : 2h 8mn
Overall bit rate : 12.0 Mbps
Video #305
ID : 305 (0x131)
Menu ID : 1 (0x1)
Format : AVC
Format/Info : Advanced Video Codec
Format profile : High@L4.0
Format settings, CABAC : Yes
Format settings, ReFrames : 3 frames
Codec ID : 27
Duration : 2h 8mn
Bit rate : 11.0 Mbps
Width : 1 920 pixels
Height : 1 080 pixels
Display aspect ratio : 16:9
Frame rate : 25.000 fps
Standard : Component
Color space : YUV
Chroma subsampling : 4:2:0
Bit depth : 8 bits
Scan type : Interlaced
Scan order : Top Field First
Bits/(Pixel*Frame) : 0.213
Stream size : 9.87 GiB (92%)
Color primaries : BT.709-5, BT.1361, IEC 61966-2-4, SMPTE RP177
Transfer characteristics : BT.709-5, BT.1361
Matrix coefficients : BT.709-5, BT.1361, IEC 61966-2-4 709, SMPTE RP177
Audio #415
ID : 415 (0x19F)
Menu ID : 1 (0x1)
Format : AC-3
Format/Info : Audio Coding 3
Mode extension : CM (complete main)
Codec ID : 6
Duration : 2h 8mn
Bit rate mode : Constant
Bit rate : 384 Kbps
Channel(s) : 2 channels
Channel positions : Front: L R
Sampling rate : 48.0 KHz
Bit depth : 16 bits
Compression mode : Lossy
Stream size : 352 MiB (3%)
Language : Russian
-Релиз от специально для -Качество: Full HD, 1080i
Формат: TS
Видео кодек: AVC
Аудио кодек: AC3
Видео: H.264, 1920x1080 (16:9) 25.00fps , 11.0 Mbps
Аудио: AC3, 48 kHz, 2 ch, 384 kbps



Показать сообщения:    

Текущее время: 03-Дек 01:21

Часовой пояс: UTC + 3


Вы не можете начинать темы
Вы не можете отвечать на сообщения
Вы не можете редактировать свои сообщения
Вы не можете удалять свои сообщения
Вы не можете голосовать в опросах
Вы не можете прикреплять файлы к сообщениям
Вы не можете скачивать файлы