Beethoven: Triple Concerto, Symphony No.6 (Giora Schmidt, Zuill Bailey, Navah Perlman, Israel Philharmonic Orchestra, Itzhak Perlman) [2012, Classical, Blu-ray]


 

[Цитировать]

Israel Philharmonic Orchestra (Itzhak Perlman)
- Beethoven: Triple Concerto - Symphony No.6 -

Лейбл: (Euroarts: 2058594)
Год выпуска: 2012
Жанр: Classical
Продолжительность: 01:38:41
Описание:
The Israel Philharmonic Orchestra is a cultural ambassador for Israel, and is regarded as one of the best orchestras in the world. Recorded in the Mann Auditorium, Tel Aviv in March 2010, this concert sees the Israel Philharmonic conducted in this all-Beethoven programme by the eminent conductor and violinist Itzhak Perlman. After the Egmont Overture, Perlman and the orchestra are joined by the Perlman/Schmidt/Bailey Trio for the beautiful ‘Triple’ Concerto. The programme concludes with the rousing and evocative ‘Pastoral’ Symphony.
Исполнители:
Itzhak Perlman - Israel Philharmonic Orchestra
Giora Schmidt - violin
Zuill Bailey - cello
Navah Perlman - piano

Треклист:
Ludwig van Beethoven:
Egmont Overture, Op. 84
Concerto for Violin, Cello and Piano in C major, Op. 56, “Triple Concerto”
Symphony No. 6 in F major, Op. 68, “Pastoral”

-
За предоставленный материал большое спасибо pjhhd

Отчёт MediaInfo / BDInfo

ОбщееИдентификатор : 0 (0x0)Полное имя : F:\Israel Philharmonic Orchestra (Itzhak Perlman) - Beethoven\BDMV\STREAM\00003.m2tsФормат : BDAVФормат/Информация : Blu-ray VideoРазмер файла : 17,2 ГбайтПродолжительность : 1 ч. 38 м.Режим общего битрейта : ПеременныйОбщий поток : 24,9 Мбит/секМаксимальный общий битрейт : 48,0 Мбит/сек
ВидеоИдентификатор : 4113 (0x1011)Идентификатор меню : 1 (0x1)Формат : MPEG VideoВерсия формата : Version 2Профиль формата : Main@HighПараметр BVOP формата : ДаПараметр матрицы формата : ВыборочнаяПараметр GOP формата : M=3, N=13Идентификатор кодека : 2Продолжительность : 1 ч. 38 м.Вид битрейта : ПеременныйБитрейт : 22,4 Мбит/секМаксимальный битрейт : 28,0 Мбит/секШирина : 1920 пикселейВысота : 1080 пикселейСоотношение сторон : 16:9Частота кадров : 29,970 кадров/секСтандарт вещания : ComponentЦветовое пространство : YUVСубдискретизация насыщенности : 4:2:0Битовая глубина : 8 битТип развёртки : ЧересстрочнаяПорядок развёртки : Верхнее поле первоеМетод сжатия : С потерямиБит/(Пиксели*Кадры) : 0.360Размер потока : 15,4 Гбайт (90%)Выравнивание : encoded by TMPGEnc 4.0 XPress Version. 4.7.6.304Заголовок : TMPGEnc XPressПрограмма кодирования : 4.7.6.304Библиотека кодирования : TMPGEnc XPress 4.7.6.304Основные цвета : BT.709Характеристики трансфера : BT.709Коэффициенты матрицы : BT.709
АудиоИдентификатор : 4352 (0x1100)Идентификатор меню : 1 (0x1)Формат : PCMПараметр Endianness формата : BigПараметр Sign формата : SignedРежим смешивания : Blu-rayИдентификатор кодека : 128Продолжительность : 1 ч. 38 м.Вид битрейта : ПостоянныйБитрейт : 1536 Кбит/секКаналы : 2 каналаРасположение каналов : Front: L RЧастота : 48,0 КГцБитовая глубина : 16 битРазмер потока : 1,06 Гбайт (6%)
Качество видео: Blu-ray
Формат/Контейнер: BDMV
Видео кодек: MPEG2
Аудио кодек: PCM
Видео поток: MPEG2 Video 1920x1080 29.97fps 22.4Mbps
Аудио поток: English LPCM 2.0 (48 kHz / 1536 kbps / 16-bit)



Показать сообщения:    

Текущее время: 05-Дек 19:37

Часовой пояс: UTC + 3


Вы не можете начинать темы
Вы не можете отвечать на сообщения
Вы не можете редактировать свои сообщения
Вы не можете удалять свои сообщения
Вы не можете голосовать в опросах
Вы не можете прикреплять файлы к сообщениям
Вы не можете скачивать файлы