Петр Чайковский - Симфония №6 "Патетическая" / Модест Мусоргский - Картинки с выставки (NHK Symphony Orchestra - Igor Markevitch \ Игорь Маркевич) [2010, Orchestral, DVD9]


 

[Цитировать]

IGOR MARKEVITCH in Japan - 1983:
Peter Tchaikovsky • Modest Moussorgsky-
-
-
-
- Год выпуска: 2010
Лейбл: NHK Classical
Страна-производитель: Japan
Жанр: Orchestral
Продолжительность: 93'28''
Язык: English \ Japan
Треклист:
Петр Чайковский- Симфония №6 "Патетическая"
[1] 1. Adagio - Allegro non troppo
[2] 2. Allegro con grazia
[3] 3. Allegro molto vivace
[4] 4. Adagio lamentoso
Модест Мусоргский- "Картинки с выставки"
[5] Прогулка
[6] Гном
[7] Прогулка
[8] Старый замок
[9] Прогулка
[10] Тюильри (Ссора детей после игры)
[11] Быдло
[12] Прогулка
[13] Балет невылупившихся птенцов
[14] Самуэль Гольдэнберг и Шмуйле
[15] Прогулка
[16] Лимож. Рынок (Большая новость)
[17] Катакомбы (Римская гробница)
[18] С мёртвыми на мёртвом языке
[19] Избушка на курьих ножках (Баба-Яга)
[20] Богатырские ворота
Исполнители:
NHK Symphony Orchestra - Igor Markevitch
Доп. информация:
Видеозапись последнего концерта Игоря Маркевича, 12 января 1983 года - за 2 месяца до его смерти.
Качество видео: DVD9
Формат/Контейнер: DVDVideo
Видео кодек: MPEG2
Аудио кодек: PCM
Видео поток: NTSC, 720х480, 29,970 fps
Аудио поток: PCM, 2 ch., 48 kHz

Mediainfo

ОбщееПолное имя : J:\Video\Music\Tchaikovsky 6; Moussorgsky - Pictures at the Excibition (NHK, Markevitch)\VIDEO_TS\VIDEO_TS.BUPФормат : DVD VideoПрофиль формата : MenuРазмер файла : 12,0 КбайтРежим общего битрейта : Переменный
ВидеоИдентификатор : 224 (0xE0)Формат : MPEG VideoВерсия формата : Version 2Вид битрейта : ПеременныйШирина : 720 пикселейВысота : 480 пикселейСоотношение сторон : 4:3Частота кадров : 29,970 кадров/секСтандарт вещания : NTSCМетод сжатия : С потерями
АудиоФормат : PCMКаналы : 2 каналаЧастота : 48,0 КГц
ТекстФормат : RLEФормат/Информация : Run-length encodingБитовая глубина : 2 бит
ОбщееПолное имя : J:\Video\Music\Tchaikovsky 6; Moussorgsky - Pictures at the Excibition (NHK, Markevitch)\VIDEO_TS\VIDEO_TS.IFOФормат : DVD VideoПрофиль формата : MenuРазмер файла : 12,0 КбайтРежим общего битрейта : Переменный
ВидеоИдентификатор : 224 (0xE0)Формат : MPEG VideoВерсия формата : Version 2Вид битрейта : ПеременныйШирина : 720 пикселейВысота : 480 пикселейСоотношение сторон : 4:3Частота кадров : 29,970 кадров/секСтандарт вещания : NTSCМетод сжатия : С потерями
АудиоФормат : PCMКаналы : 2 каналаЧастота : 48,0 КГц
ТекстФормат : RLEФормат/Информация : Run-length encodingБитовая глубина : 2 бит
ОбщееПолное имя : J:\Video\Music\Tchaikovsky 6; Moussorgsky - Pictures at the Excibition (NHK, Markevitch)\VIDEO_TS\VIDEO_TS.VOBФормат : MPEG-PSРазмер файла : 28,7 МбайтПродолжительность : 24 с.Режим общего битрейта : ПеременныйОбщий поток : 9806 Кбит/сек
ВидеоИдентификатор : 224 (0xE0)Формат : MPEG VideoВерсия формата : Version 2Профиль формата : Main@MainПараметр BVOP формата : ДаПараметр матрицы формата : ВыборочнаяПродолжительность : 24 с.Вид битрейта : ПеременныйБитрейт : 8075 Кбит/секМаксимальный битрейт : 9800 Кбит/секШирина : 720 пикселейВысота : 480 пикселейСоотношение сторон : 4:3Частота кадров : 29,970 кадров/секСтандарт вещания : NTSCЦветовое пространство : YUVСубдискретизация насыщенности : 4:2:0Битовая глубина : 8 битТип развёртки : ЧересстрочнаяПорядок развёртки : Верхнее поле первоеМетод сжатия : С потерямиБит/(Пиксели*Кадры) : 0.780Размер потока : 23,6 Мбайт (82%)
АудиоИдентификатор : 189 (0xBD)-160 (0xA0)Формат : PCMПараметр Endianness формата : BigПараметр Sign формата : SignedРежим смешивания : DVD-VideoПродолжительность : 24 с.Вид битрейта : ПостоянныйБитрейт : 1536 Кбит/секКаналы : 2 каналаЧастота : 48,0 КГцБитовая глубина : 16 битРазмер потока : 4,48 Мбайт (16%)
Меню
ОбщееПолное имя : J:\Video\Music\Tchaikovsky 6; Moussorgsky - Pictures at the Excibition (NHK, Markevitch)\VIDEO_TS\VTS_01_0.BUPФормат : DVD VideoПрофиль формата : ProgramРазмер файла : 86,0 КбайтПродолжительность : 1 ч. 33 м.Режим общего битрейта : ПеременныйОбщий поток : 126 бит/сек
ВидеоИдентификатор : 224 (0xE0)Формат : MPEG VideoВерсия формата : Version 2Продолжительность : 1 ч. 33 м.Вид битрейта : ПеременныйШирина : 720 пикселейВысота : 480 пикселейСоотношение сторон : 4:3Частота кадров : 29,970 кадров/секСтандарт вещания : NTSCМетод сжатия : С потерями
АудиоИдентификатор : 0 (0x0)Формат : PCMПродолжительность : 1 ч. 33 м.Каналы : 2 каналаЧастота : 48,0 КГц
Меню #1Продолжительность : 1 ч. 33 м.00:00:00.000 : Chapter 100:00:51.000 : Chapter 200:21:20.833 : Chapter 300:29:33.499 : Chapter 400:39:42.665 : Chapter 500:50:30.498 : Chapter 600:53:36.698 : Chapter 700:54:10.198 : Chapter 800:58:35.864 : Chapter 901:03:23.197 : Chapter 1001:05:17.197 : Chapter 1101:08:29.130 : Chapter 1201:10:38.196 : Chapter 1301:12:53.429 : Chapter 1401:14:51.862 : Chapter 1501:18:46.395 : Chapter 1601:22:30.861 : Chapter 1701:29:38.861 : Chapter 1801:33:20.194 : Chapter 19List (Audio) : 0
Меню #2Продолжительность : 1 ч. 33 м.00:00:00.000 : Chapter 100:00:51.000 : Chapter 200:21:20.833 : Chapter 300:29:33.499 : Chapter 400:39:42.665 : Chapter 500:50:30.498 : Chapter 600:53:36.698 : Chapter 700:54:10.198 : Chapter 800:58:35.864 : Chapter 901:03:23.197 : Chapter 1001:05:17.197 : Chapter 1101:08:29.130 : Chapter 1201:10:38.196 : Chapter 1301:12:53.429 : Chapter 1401:14:51.862 : Chapter 1501:18:46.395 : Chapter 1601:22:30.861 : Chapter 1701:29:38.861 : Chapter 18List (Audio) : 0
Меню #3Продолжительность : 53 м.00:00:00.000 : Chapter 100:00:51.000 : Chapter 200:21:20.833 : Chapter 300:29:33.499 : Chapter 400:39:42.665 : Chapter 500:50:30.498 : Chapter 6List (Audio) : 0
Меню #4Продолжительность : 39 м.00:00:00.000 : Chapter 100:00:33.500 : Chapter 200:04:59.166 : Chapter 300:09:46.499 : Chapter 400:11:40.499 : Chapter 500:14:52.432 : Chapter 600:17:01.498 : Chapter 700:19:16.731 : Chapter 800:21:15.164 : Chapter 900:25:09.697 : Chapter 1000:28:54.163 : Chapter 1100:36:02.163 : Chapter 12List (Audio) : 0
ОбщееПолное имя : J:\Video\Music\Tchaikovsky 6; Moussorgsky - Pictures at the Excibition (NHK, Markevitch)\VIDEO_TS\VTS_01_0.IFOФормат : DVD VideoПрофиль формата : ProgramРазмер файла : 86,0 КбайтПродолжительность : 1 ч. 33 м.Режим общего битрейта : ПеременныйОбщий поток : 126 бит/сек
ВидеоИдентификатор : 224 (0xE0)Формат : MPEG VideoВерсия формата : Version 2Продолжительность : 1 ч. 33 м.Вид битрейта : ПеременныйШирина : 720 пикселейВысота : 480 пикселейСоотношение сторон : 4:3Частота кадров : 29,970 кадров/секСтандарт вещания : NTSCМетод сжатия : С потерями
АудиоИдентификатор : 0 (0x0)Формат : PCMПродолжительность : 1 ч. 33 м.Каналы : 2 каналаЧастота : 48,0 КГц
Меню #1Продолжительность : 1 ч. 33 м.00:00:00.000 : Chapter 100:00:51.000 : Chapter 200:21:20.833 : Chapter 300:29:33.499 : Chapter 400:39:42.665 : Chapter 500:50:30.498 : Chapter 600:53:36.698 : Chapter 700:54:10.198 : Chapter 800:58:35.864 : Chapter 901:03:23.197 : Chapter 1001:05:17.197 : Chapter 1101:08:29.130 : Chapter 1201:10:38.196 : Chapter 1301:12:53.429 : Chapter 1401:14:51.862 : Chapter 1501:18:46.395 : Chapter 1601:22:30.861 : Chapter 1701:29:38.861 : Chapter 1801:33:20.194 : Chapter 19List (Audio) : 0
Меню #2Продолжительность : 1 ч. 33 м.00:00:00.000 : Chapter 100:00:51.000 : Chapter 200:21:20.833 : Chapter 300:29:33.499 : Chapter 400:39:42.665 : Chapter 500:50:30.498 : Chapter 600:53:36.698 : Chapter 700:54:10.198 : Chapter 800:58:35.864 : Chapter 901:03:23.197 : Chapter 1001:05:17.197 : Chapter 1101:08:29.130 : Chapter 1201:10:38.196 : Chapter 1301:12:53.429 : Chapter 1401:14:51.862 : Chapter 1501:18:46.395 : Chapter 1601:22:30.861 : Chapter 1701:29:38.861 : Chapter 18List (Audio) : 0
Меню #3Продолжительность : 53 м.00:00:00.000 : Chapter 100:00:51.000 : Chapter 200:21:20.833 : Chapter 300:29:33.499 : Chapter 400:39:42.665 : Chapter 500:50:30.498 : Chapter 6List (Audio) : 0
Меню #4Продолжительность : 39 м.00:00:00.000 : Chapter 100:00:33.500 : Chapter 200:04:59.166 : Chapter 300:09:46.499 : Chapter 400:11:40.499 : Chapter 500:14:52.432 : Chapter 600:17:01.498 : Chapter 700:19:16.731 : Chapter 800:21:15.164 : Chapter 900:25:09.697 : Chapter 1000:28:54.163 : Chapter 1100:36:02.163 : Chapter 12List (Audio) : 0
ОбщееПолное имя : J:\Video\Music\Tchaikovsky 6; Moussorgsky - Pictures at the Excibition (NHK, Markevitch)\VIDEO_TS\VTS_01_0.VOBФормат : MPEG-PSРазмер файла : 480 КбайтПродолжительность : 33 мс.Общий поток : 119 Мбит/сек
ВидеоИдентификатор : 224 (0xE0)Формат : MPEG VideoВерсия формата : Version 2Профиль формата : Main@MainПараметр BVOP формата : НетПараметр матрицы формата : ВыборочнаяПараметр GOP формата : N=1Продолжительность : 33 мс.Максимальный битрейт : 8000 Кбит/секШирина : 720 пикселейВысота : 480 пикселейСоотношение сторон : 4:3Частота кадров : 29,970 кадров/секСтандарт вещания : NTSCЦветовое пространство : YUVСубдискретизация насыщенности : 4:2:0Битовая глубина : 8 битТип развёртки : ПрогрессивнаяПорядок развёртки : Верхнее поле первоеМетод сжатия : С потерями
ТекстИдентификатор : 189 (0xBD)-32 (0x20)Формат : RLEФормат/Информация : Run-length encodingРежим смешивания : DVD-Video
Меню
ОбщееПолное имя : J:\Video\Music\Tchaikovsky 6; Moussorgsky - Pictures at the Excibition (NHK, Markevitch)\VIDEO_TS\VTS_01_1.VOBФормат : MPEG-PSРазмер файла : 1024 МбайтПродолжительность : 14 м.Режим общего битрейта : ПеременныйОбщий поток : 9829 Кбит/сек
ВидеоИдентификатор : 224 (0xE0)Формат : MPEG VideoВерсия формата : Version 2Профиль формата : Main@MainПараметр BVOP формата : ДаПараметр матрицы формата : ВыборочнаяПараметр GOP формата : M=3, N=15Продолжительность : 14 м.Вид битрейта : ПеременныйБитрейт : 8098 Кбит/секМаксимальный битрейт : 8300 Кбит/секШирина : 720 пикселейВысота : 480 пикселейСоотношение сторон : 4:3Частота кадров : 29,970 кадров/секСтандарт вещания : NTSCЦветовое пространство : YUVСубдискретизация насыщенности : 4:2:0Битовая глубина : 8 битТип развёртки : ЧересстрочнаяПорядок развёртки : Верхнее поле первоеМетод сжатия : С потерямиБит/(Пиксели*Кадры) : 0.782Размер потока : 844 Мбайт (82%)
АудиоИдентификатор : 189 (0xBD)-160 (0xA0)Формат : PCMПараметр Endianness формата : BigПараметр Sign формата : SignedРежим смешивания : DVD-VideoПродолжительность : 14 м.Вид битрейта : ПостоянныйБитрейт : 1536 Кбит/секКаналы : 2 каналаЧастота : 48,0 КГцБитовая глубина : 16 битЗадержка видео : -66 мс.Размер потока : 160 Мбайт (16%)
Меню
ОбщееПолное имя : J:\Video\Music\Tchaikovsky 6; Moussorgsky - Pictures at the Excibition (NHK, Markevitch)\VIDEO_TS\VTS_01_2.VOBФормат : MPEG-PSРазмер файла : 1024 МбайтПродолжительность : 14 м.Режим общего битрейта : ПеременныйОбщий поток : 9846 Кбит/сек
ВидеоИдентификатор : 224 (0xE0)Формат : MPEG VideoВерсия формата : Version 2Профиль формата : Main@MainПараметр BVOP формата : ДаПараметр матрицы формата : ВыборочнаяПараметр GOP формата : M=3, N=15Продолжительность : 14 м.Вид битрейта : ПеременныйБитрейт : 8114 Кбит/секМаксимальный битрейт : 8300 Кбит/секШирина : 720 пикселейВысота : 480 пикселейСоотношение сторон : 4:3Частота кадров : 29,970 кадров/секСтандарт вещания : NTSCЦветовое пространство : YUVСубдискретизация насыщенности : 4:2:0Битовая глубина : 8 битТип развёртки : ЧересстрочнаяПорядок развёртки : Верхнее поле первоеМетод сжатия : С потерямиБит/(Пиксели*Кадры) : 0.783Размер потока : 844 Мбайт (82%)
АудиоИдентификатор : 189 (0xBD)-160 (0xA0)Формат : PCMПараметр Endianness формата : BigПараметр Sign формата : SignedРежим смешивания : DVD-VideoПродолжительность : 14 м.Вид битрейта : ПостоянныйБитрейт : 1536 Кбит/секКаналы : 2 каналаЧастота : 48,0 КГцБитовая глубина : 16 битЗадержка видео : -339 мс.Размер потока : 160 Мбайт (16%)
Меню
ОбщееПолное имя : J:\Video\Music\Tchaikovsky 6; Moussorgsky - Pictures at the Excibition (NHK, Markevitch)\VIDEO_TS\VTS_01_3.VOBФормат : MPEG-PSРазмер файла : 1024 МбайтПродолжительность : 14 м.Режим общего битрейта : ПеременныйОбщий поток : 9792 Кбит/сек
ВидеоИдентификатор : 224 (0xE0)Формат : MPEG VideoВерсия формата : Version 2Профиль формата : Main@MainПараметр BVOP формата : ДаПараметр матрицы формата : ВыборочнаяПараметр GOP формата : M=3, N=15Продолжительность : 14 м.Вид битрейта : ПеременныйБитрейт : 8061 Кбит/секМаксимальный битрейт : 8300 Кбит/секШирина : 720 пикселейВысота : 480 пикселейСоотношение сторон : 4:3Частота кадров : 29,970 кадров/секСтандарт вещания : NTSCЦветовое пространство : YUVСубдискретизация насыщенности : 4:2:0Битовая глубина : 8 битТип развёртки : ЧересстрочнаяПорядок развёртки : Верхнее поле первоеМетод сжатия : С потерямиБит/(Пиксели*Кадры) : 0.778Размер потока : 843 Мбайт (82%)
АудиоИдентификатор : 189 (0xBD)-160 (0xA0)Формат : PCMПараметр Endianness формата : BigПараметр Sign формата : SignedРежим смешивания : DVD-VideoПродолжительность : 14 м.Вид битрейта : ПостоянныйБитрейт : 1536 Кбит/секКаналы : 2 каналаЧастота : 48,0 КГцБитовая глубина : 16 битЗадержка видео : -722 мс.Размер потока : 161 Мбайт (16%)
Меню
ОбщееПолное имя : J:\Video\Music\Tchaikovsky 6; Moussorgsky - Pictures at the Excibition (NHK, Markevitch)\VIDEO_TS\VTS_01_4.VOBФормат : MPEG-PSРазмер файла : 1024 МбайтПродолжительность : 4 с. 4 мс.Режим общего битрейта : ПеременныйОбщий поток : 2145 Мбит/сек
ВидеоИдентификатор : 224 (0xE0)Формат : MPEG VideoВерсия формата : Version 2Профиль формата : Main@MainПараметр BVOP формата : ДаПараметр матрицы формата : ВыборочнаяПараметр GOP формата : M=3, N=15Продолжительность : 4 с. 4 мс.Вид битрейта : ПеременныйБитрейт : 2101 Мбит/секМаксимальный битрейт : 8300 Кбит/секШирина : 720 пикселейВысота : 480 пикселейСоотношение сторон : 4:3Частота кадров : 29,970 кадров/секСтандарт вещания : NTSCЦветовое пространство : YUVСубдискретизация насыщенности : 4:2:0Битовая глубина : 8 битТип развёртки : ЧересстрочнаяПорядок развёртки : Верхнее поле первоеМетод сжатия : С потерямиБит/(Пиксели*Кадры) : 202.856Размер потока : 1003 Мбайт (98%)
АудиоИдентификатор : 189 (0xBD)-160 (0xA0)Формат : PCMПараметр Endianness формата : BigПараметр Sign формата : SignedРежим смешивания : DVD-VideoПродолжительность : 4 с. 4 мс.Вид битрейта : ПостоянныйБитрейт : 1536 Кбит/секКаналы : 2 каналаЧастота : 48,0 КГцБитовая глубина : 16 битЗадержка видео : -478 мс.Размер потока : 751 Кбайт (0%)
Меню
ОбщееПолное имя : J:\Video\Music\Tchaikovsky 6; Moussorgsky - Pictures at the Excibition (NHK, Markevitch)\VIDEO_TS\VTS_01_5.VOBФормат : MPEG-PSРазмер файла : 1024 МбайтПродолжительность : 14 м.Режим общего битрейта : ПеременныйОбщий поток : 9708 Кбит/сек
ВидеоИдентификатор : 224 (0xE0)Формат : MPEG VideoВерсия формата : Version 2Профиль формата : Main@MainПараметр BVOP формата : ДаПараметр матрицы формата : ВыборочнаяПараметр GOP формата : M=3, N=15Продолжительность : 14 м.Вид битрейта : ПеременныйБитрейт : 7979 Кбит/секМаксимальный битрейт : 8300 Кбит/секШирина : 720 пикселейВысота : 480 пикселейСоотношение сторон : 4:3Частота кадров : 29,970 кадров/секСтандарт вещания : NTSCЦветовое пространство : YUVСубдискретизация насыщенности : 4:2:0Битовая глубина : 8 битТип развёртки : ЧересстрочнаяПорядок развёртки : Верхнее поле первоеМетод сжатия : С потерямиБит/(Пиксели*Кадры) : 0.770Размер потока : 842 Мбайт (82%)
АудиоИдентификатор : 189 (0xBD)-160 (0xA0)Формат : PCMПараметр Endianness формата : BigПараметр Sign формата : SignedРежим смешивания : DVD-VideoПродолжительность : 14 м.Вид битрейта : ПостоянныйБитрейт : 1536 Кбит/секКаналы : 2 каналаЧастота : 48,0 КГцБитовая глубина : 16 битЗадержка видео : -352 мс.Размер потока : 162 Мбайт (16%)
Меню
ОбщееПолное имя : J:\Video\Music\Tchaikovsky 6; Moussorgsky - Pictures at the Excibition (NHK, Markevitch)\VIDEO_TS\VTS_01_6.VOBФормат : MPEG-PSРазмер файла : 1024 МбайтПродолжительность : 14 м.Режим общего битрейта : ПеременныйОбщий поток : 9761 Кбит/сек
ВидеоИдентификатор : 224 (0xE0)Формат : MPEG VideoВерсия формата : Version 2Профиль формата : Main@MainПараметр BVOP формата : ДаПараметр матрицы формата : ВыборочнаяПараметр GOP формата : M=3, N=15Продолжительность : 14 м.Вид битрейта : ПеременныйБитрейт : 8031 Кбит/секМаксимальный битрейт : 8300 Кбит/секШирина : 720 пикселейВысота : 480 пикселейСоотношение сторон : 4:3Частота кадров : 29,970 кадров/секСтандарт вещания : NTSCЦветовое пространство : YUVСубдискретизация насыщенности : 4:2:0Битовая глубина : 8 битТип развёртки : ЧересстрочнаяПорядок развёртки : Верхнее поле первоеМетод сжатия : С потерямиБит/(Пиксели*Кадры) : 0.775Размер потока : 842 Мбайт (82%)
АудиоИдентификатор : 189 (0xBD)-160 (0xA0)Формат : PCMПараметр Endianness формата : BigПараметр Sign формата : SignedРежим смешивания : DVD-VideoПродолжительность : 14 м.Вид битрейта : ПостоянныйБитрейт : 1536 Кбит/секКаналы : 2 каналаЧастота : 48,0 КГцБитовая глубина : 16 битЗадержка видео : -605 мс.Размер потока : 161 Мбайт (16%)
Меню
ОбщееПолное имя : J:\Video\Music\Tchaikovsky 6; Moussorgsky - Pictures at the Excibition (NHK, Markevitch)\VIDEO_TS\VTS_01_7.VOBФормат : MPEG-PSРазмер файла : 406 МбайтПродолжительность : 3 с. 670 мс.Режим общего битрейта : ПеременныйОбщий поток : 928 Мбит/сек
ВидеоИдентификатор : 224 (0xE0)Формат : MPEG VideoВерсия формата : Version 2Профиль формата : Main@MainПараметр BVOP формата : ДаПараметр матрицы формата : ВыборочнаяПараметр GOP формата : M=3, N=15Продолжительность : 3 с. 670 мс.Вид битрейта : ПеременныйБитрейт : 908 Мбит/секМаксимальный битрейт : 8300 Кбит/секШирина : 720 пикселейВысота : 480 пикселейСоотношение сторон : 4:3Частота кадров : 29,970 кадров/секСтандарт вещания : NTSCЦветовое пространство : YUVСубдискретизация насыщенности : 4:2:0Битовая глубина : 8 битТип развёртки : ЧересстрочнаяПорядок развёртки : Верхнее поле первоеМетод сжатия : С потерямиБит/(Пиксели*Кадры) : 87.698Размер потока : 397 Мбайт (98%)
АудиоИдентификатор : 189 (0xBD)-160 (0xA0)Формат : PCMПараметр Endianness формата : BigПараметр Sign формата : SignedРежим смешивания : DVD-VideoПродолжительность : 3 с. 670 мс.Вид битрейта : ПостоянныйБитрейт : 1536 Кбит/секКаналы : 2 каналаЧастота : 48,0 КГцБитовая глубина : 16 битЗадержка видео : -763 мс.Размер потока : 688 Кбайт (0%)
Меню



Показать сообщения:    

Текущее время: 06-Дек 19:00

Часовой пояс: UTC + 3


Вы не можете начинать темы
Вы не можете отвечать на сообщения
Вы не можете редактировать свои сообщения
Вы не можете удалять свои сообщения
Вы не можете голосовать в опросах
Вы не можете прикреплять файлы к сообщениям
Вы не можете скачивать файлы