J.Brahms - Symphonie Nr.4; M.Ravel - "La valse" (Japan Philharmonic Symphony Orchestra - Igor Markevitch) \\ Брамс - Симфония №4; Равель - "Вальс" (Игорь Маркевич) [2002, Orchestral, DVD5]


 

[Цитировать]

IGOR MARKEVITCH in Japan - 1968:
Johannes Brahms • Maurice Ravel-
-
-
-
- Год выпуска: 2002
Лейбл: Exton
Страна-производитель: Japan
Жанр: Orchestral
Продолжительность: 56'15''
Язык: English \ Japan
Треклист:
J.Brahms - Symphonie Nr.4
[1] 1. Allegro non troppo
[2] 2. Andante moderato
[3] 3. Allegro giocoso
[4] 4. Allegro energico e passionato
rec.: 21.03.1968
M.Ravel
[5] "La valse", poème chorégraphique
rec.: 29.02.1968
Исполнители:
Japan Philharmonic Symphony Orchestra - Igor Markevitch
Доп. информация:
Исполнения невероятной силы и напряжения! Одни из тех немногих записей, которые интересно не только слушать, но и смотреть: жестикуляция Маркевича настолько точная, настолько выверенная (как говорил о нём Г.Рождественский "У Игоря Борисовича каждое движение имело свой смысл"), что порою кажется, будто музыка извлекается его собственными руками.-Качество видео: DVD5
Формат/Контейнер: DVDVideo
Видео кодек: MPEG2
Аудио кодек: PCM
Видео поток: NTSC, 720x480, 29,970 fps
Аудио поток: PCM, 2 ch., 48 kHz

Mediainfo

ОбщееПолное имя : J:\Video\Music\Brahms 4; Ravel - La Valse (JPO, Markevitch)\VIDEO_TS\VIDEO_TS.BUPФормат : DVD VideoПрофиль формата : MenuРазмер файла : 8,00 КбайтРежим общего битрейта : Переменный
ВидеоИдентификатор : 224 (0xE0)Формат : MPEG VideoВерсия формата : Version 2Вид битрейта : ПеременныйШирина : 720 пикселейВысота : 480 пикселейСоотношение сторон : 4:3Частота кадров : 29,970 кадров/секСтандарт вещания : NTSCМетод сжатия : С потерями
ОбщееПолное имя : J:\Video\Music\Brahms 4; Ravel - La Valse (JPO, Markevitch)\VIDEO_TS\VIDEO_TS.IFOФормат : DVD VideoПрофиль формата : MenuРазмер файла : 8,00 КбайтРежим общего битрейта : Переменный
ВидеоИдентификатор : 224 (0xE0)Формат : MPEG VideoВерсия формата : Version 2Вид битрейта : ПеременныйШирина : 720 пикселейВысота : 480 пикселейСоотношение сторон : 4:3Частота кадров : 29,970 кадров/секСтандарт вещания : NTSCМетод сжатия : С потерями
ОбщееПолное имя : J:\Video\Music\Brahms 4; Ravel - La Valse (JPO, Markevitch)\VIDEO_TS\VTS_01_0.BUPФормат : DVD VideoПрофиль формата : ProgramРазмер файла : 50,0 КбайтПродолжительность : 56 м.Режим общего битрейта : ПеременныйОбщий поток : 121 бит/сек
ВидеоИдентификатор : 224 (0xE0)Формат : MPEG VideoВерсия формата : Version 2Продолжительность : 56 м.Вид битрейта : ПеременныйШирина : 720 пикселейВысота : 480 пикселейСоотношение сторон : 4:3Частота кадров : 29,970 кадров/секСтандарт вещания : NTSCМетод сжатия : С потерями
АудиоИдентификатор : 0 (0x0)Формат : PCMПродолжительность : 56 м.Каналы : 2 каналаЧастота : 48,0 КГцЯзык : Japanese
Меню #1Продолжительность : 56 м.00:00:00.000 : Chapter 100:00:49.100 : Chapter 200:13:15.900 : Chapter 300:25:34.500 : Chapter 400:31:38.200 : Chapter 500:42:42.100 : Chapter 600:55:54.000 : Chapter 7List (Audio) : 0
Меню #2Продолжительность : 7 с. 100 мс.00:00:00.000 : Chapter 1List (Audio) : 0
Меню #3
ОбщееПолное имя : J:\Video\Music\Brahms 4; Ravel - La Valse (JPO, Markevitch)\VIDEO_TS\VTS_01_0.IFOФормат : DVD VideoПрофиль формата : ProgramРазмер файла : 50,0 КбайтПродолжительность : 56 м.Режим общего битрейта : ПеременныйОбщий поток : 121 бит/сек
ВидеоИдентификатор : 224 (0xE0)Формат : MPEG VideoВерсия формата : Version 2Продолжительность : 56 м.Вид битрейта : ПеременныйШирина : 720 пикселейВысота : 480 пикселейСоотношение сторон : 4:3Частота кадров : 29,970 кадров/секСтандарт вещания : NTSCМетод сжатия : С потерями
АудиоИдентификатор : 0 (0x0)Формат : PCMПродолжительность : 56 м.Каналы : 2 каналаЧастота : 48,0 КГцЯзык : Japanese
Меню #1Продолжительность : 56 м.00:00:00.000 : Chapter 100:00:49.100 : Chapter 200:13:15.900 : Chapter 300:25:34.500 : Chapter 400:31:38.200 : Chapter 500:42:42.100 : Chapter 600:55:54.000 : Chapter 7List (Audio) : 0
Меню #2Продолжительность : 7 с. 100 мс.00:00:00.000 : Chapter 1List (Audio) : 0
Меню #3
ОбщееПолное имя : J:\Video\Music\Brahms 4; Ravel - La Valse (JPO, Markevitch)\VIDEO_TS\VTS_01_0.VOBФормат : MPEG-PSРазмер файла : 604 КбайтПродолжительность : 33 мс.Общий поток : 150 Мбит/сек
ВидеоИдентификатор : 224 (0xE0)Формат : MPEG VideoВерсия формата : Version 2Профиль формата : Main@MainПараметр BVOP формата : НетПараметр матрицы формата : ВыборочнаяПродолжительность : 33 мс.Максимальный битрейт : 8000 Кбит/секШирина : 720 пикселейВысота : 480 пикселейСоотношение сторон : 4:3Частота кадров : 29,970 кадров/секСтандарт вещания : NTSCЦветовое пространство : YUVСубдискретизация насыщенности : 4:2:0Битовая глубина : 8 битТип развёртки : ПрогрессивнаяПорядок развёртки : Верхнее поле первоеМетод сжатия : С потерями
ТекстИдентификатор : 189 (0xBD)-32 (0x20)Формат : RLEФормат/Информация : Run-length encodingРежим смешивания : DVD-Video
Меню
ОбщееПолное имя : J:\Video\Music\Brahms 4; Ravel - La Valse (JPO, Markevitch)\VIDEO_TS\VTS_01_1.VOBФормат : MPEG-PSРазмер файла : 1024 МбайтПродолжительность : 14 м.Общий поток : 9786 Кбит/сек
ВидеоИдентификатор : 224 (0xE0)Формат : MPEG VideoВерсия формата : Version 2Профиль формата : Main@MainПараметр BVOP формата : ДаПараметр матрицы формата : ВыборочнаяПараметр GOP формата : M=3, N=15Продолжительность : 14 м.Битрейт : 8000 Кбит/секШирина : 720 пикселейВысота : 480 пикселейСоотношение сторон : 4:3Частота кадров : 29,970 кадров/секСтандарт вещания : NTSCЦветовое пространство : YUVСубдискретизация насыщенности : 4:2:0Битовая глубина : 8 битТип развёртки : ЧересстрочнаяПорядок развёртки : Верхнее поле первоеМетод сжатия : С потерямиБит/(Пиксели*Кадры) : 0.772Размер потока : 843 Мбайт (82%)
АудиоИдентификатор : 189 (0xBD)-160 (0xA0)Формат : PCMПараметр Endianness формата : BigПараметр Sign формата : SignedРежим смешивания : DVD-VideoПродолжительность : 14 м.Вид битрейта : ПостоянныйБитрейт : 1536 Кбит/секКаналы : 2 каналаЧастота : 48,0 КГцБитовая глубина : 16 битЗадержка видео : -66 мс.Размер потока : 161 Мбайт (16%)
Меню
ОбщееПолное имя : J:\Video\Music\Brahms 4; Ravel - La Valse (JPO, Markevitch)\VIDEO_TS\VTS_01_2.VOBФормат : MPEG-PSРазмер файла : 1024 МбайтПродолжительность : 14 м.Общий поток : 9707 Кбит/сек
ВидеоИдентификатор : 224 (0xE0)Формат : MPEG VideoВерсия формата : Version 2Профиль формата : Main@MainПараметр BVOP формата : ДаПараметр матрицы формата : ВыборочнаяПараметр GOP формата : M=3, N=15Продолжительность : 14 м.Битрейт : 8000 Кбит/секШирина : 720 пикселейВысота : 480 пикселейСоотношение сторон : 4:3Частота кадров : 29,970 кадров/секСтандарт вещания : NTSCЦветовое пространство : YUVСубдискретизация насыщенности : 4:2:0Битовая глубина : 8 битТип развёртки : ЧересстрочнаяПорядок развёртки : Верхнее поле первоеМетод сжатия : С потерямиБит/(Пиксели*Кадры) : 0.772Размер потока : 841 Мбайт (82%)
АудиоИдентификатор : 189 (0xBD)-160 (0xA0)Формат : PCMПараметр Endianness формата : BigПараметр Sign формата : SignedРежим смешивания : DVD-VideoПродолжительность : 14 м.Вид битрейта : ПостоянныйБитрейт : 1536 Кбит/секКаналы : 2 каналаЧастота : 48,0 КГцБитовая глубина : 16 битЗадержка видео : -818 мс.Размер потока : 162 Мбайт (16%)
Меню
ОбщееПолное имя : J:\Video\Music\Brahms 4; Ravel - La Valse (JPO, Markevitch)\VIDEO_TS\VTS_01_3.VOBФормат : MPEG-PSРазмер файла : 1024 МбайтПродолжительность : 14 м.Общий поток : 9707 Кбит/сек
ВидеоИдентификатор : 224 (0xE0)Формат : MPEG VideoВерсия формата : Version 2Профиль формата : Main@MainПараметр BVOP формата : ДаПараметр матрицы формата : ВыборочнаяПараметр GOP формата : M=3, N=15Продолжительность : 14 м.Битрейт : 8000 Кбит/секШирина : 720 пикселейВысота : 480 пикселейСоотношение сторон : 4:3Частота кадров : 29,970 кадров/секСтандарт вещания : NTSCЦветовое пространство : YUVСубдискретизация насыщенности : 4:2:0Битовая глубина : 8 битТип развёртки : ЧересстрочнаяПорядок развёртки : Верхнее поле первоеМетод сжатия : С потерямиБит/(Пиксели*Кадры) : 0.772Размер потока : 841 Мбайт (82%)
АудиоИдентификатор : 189 (0xBD)-160 (0xA0)Формат : PCMПараметр Endianness формата : BigПараметр Sign формата : SignedРежим смешивания : DVD-VideoПродолжительность : 14 м.Вид битрейта : ПостоянныйБитрейт : 1536 Кбит/секКаналы : 2 каналаЧастота : 48,0 КГцБитовая глубина : 16 битЗадержка видео : -461 мс.Размер потока : 162 Мбайт (16%)
Меню
ОбщееПолное имя : J:\Video\Music\Brahms 4; Ravel - La Valse (JPO, Markevitch)\VIDEO_TS\VTS_01_4.VOBФормат : MPEG-PSРазмер файла : 847 МбайтПродолжительность : 3 с. 937 мс.Общий поток : 1804 Мбит/сек
ВидеоИдентификатор : 224 (0xE0)Формат : MPEG VideoВерсия формата : Version 2Профиль формата : Main@MainПараметр BVOP формата : ДаПараметр матрицы формата : ВыборочнаяПараметр GOP формата : M=3, N=15Продолжительность : 3 с. 937 мс.Битрейт : 1766 Мбит/секМаксимальный битрейт : 8000 Кбит/секШирина : 720 пикселейВысота : 480 пикселейСоотношение сторон : 4:3Частота кадров : 29,970 кадров/секСтандарт вещания : NTSCЦветовое пространство : YUVСубдискретизация насыщенности : 4:2:0Битовая глубина : 8 битТип развёртки : ЧересстрочнаяПорядок развёртки : Верхнее поле первоеМетод сжатия : С потерямиБит/(Пиксели*Кадры) : 170.548Размер потока : 829 Мбайт (98%)
АудиоИдентификатор : 189 (0xBD)-160 (0xA0)Формат : PCMПараметр Endianness формата : BigПараметр Sign формата : SignedРежим смешивания : DVD-VideoПродолжительность : 3 с. 937 мс.Вид битрейта : ПостоянныйБитрейт : 1536 Кбит/секКаналы : 2 каналаЧастота : 48,0 КГцБитовая глубина : 16 битЗадержка видео : -445 мс.Размер потока : 738 Кбайт (0%)
Меню
-



Показать сообщения:    

Текущее время: 11-Дек 14:58

Часовой пояс: UTC + 3


Вы не можете начинать темы
Вы не можете отвечать на сообщения
Вы не можете редактировать свои сообщения
Вы не можете удалять свои сообщения
Вы не можете голосовать в опросах
Вы не можете прикреплять файлы к сообщениям
Вы не можете скачивать файлы