A.Vivaldi, D.Scarlatti, A.Caldara- Kantaten, (Max Emanuel Cencic - countertetor, Ornamente 99 - Karsten Eric Ose (conductor, direction)) [2012, Baroque, DVD5]


 

[Цитировать]

A.Vivaldi, D.Scarlatti, A.Caldara - Kantaten, (Max Emanuel Cencic - countertetor, Ornamente 99 - Karsten Eric Ose (conductor, direction)) 2012
Год выпуска: 2012
Лейбл: Capriccio
Страна-производитель:Austria
Жанр: Baroque/ biographic
Продолжительность: 59:07
Язык: deutsch
Субтитры: немецкие , английские , французские
Режиссер: Johannes Kernmayer
Описание: Bonus к CD
Качество видео: DVD5
Формат/Контейнер: DVDVideo
Видео кодек: MPEG2
Аудио кодек: PCM
Видео поток: MPEG-PS, NTSC, 704x480, ~6000kb/s, 4:3, 29970fps
Аудио поток: PCM, ~1536kb/s, 2ch, 48Khz, 16bit
Треклист:
1.Qual pensier, quale ardire
2.So che del'alma mia
3.Ma stolta ch'ora sono
4.Da me si Ta'lontana

Исполнители:
Max Emanuel Cencic (countertenor), ornamente 99 - Karsten Eric Ose(conductor)

mediainfo

General
Complete name : F:\VIDEO_TS\VTS_02_1.VOB
Format : MPEG-PS
File size : 1 024 MiB
Duration : 18mn 36s
Overall bit rate : 7 690 Kbps
Video
ID : 224 (0xE0)
Format : MPEG Video
Format version : Version 2
Format profile : Main@Main
Format settings, BVOP : Yes
Format settings, Matrix : Default
Format settings, GOP : M=3, N=16
Duration : 18mn 36s
Bit rate : 6 000 Kbps
Width : 704 pixels
Height : 480 pixels
Display aspect ratio : 4:3
Frame rate : 29.970 fps
Standard : NTSC
Color space : YUV
Chroma subsampling : 4:2:0
Bit depth : 8 bits
Scan type : Interlaced
Scan order : Top Field First
Compression mode : Lossy
Bits/(Pixel*Frame) : 0.592
Stream size : 799 MiB (78%)
Color primaries : BT.601 PAL
Transfer characteristics : BT.470 System B, BT.470 System G
Matrix coefficients : BT.601
Audio
ID : 189 (0xBD)-160 (0xA0)
Format : PCM
Format settings, Endianness : Big
Format settings, Sign : Signed
Muxing mode : DVD-Video
Duration : 18mn 36s
Bit rate mode : Constant
Bit rate : 1 536 Kbps
Channel(s) : 2 channels
Sampling rate : 48.0 KHz
Bit depth : 16 bits
Stream size : 204 MiB (20%)
Text #1
ID : 189 (0xBD)-32 (0x20)
Format : RLE
Format/Info : Run-length encoding
Muxing mode : DVD-Video
Text #2
ID : 189 (0xBD)-33 (0x21)
Format : RLE
Format/Info : Run-length encoding
Muxing mode : DVD-Video
Menu

Скриншоты




Показать сообщения:    

Текущее время: 04-Дек 02:55

Часовой пояс: UTC + 3


Вы не можете начинать темы
Вы не можете отвечать на сообщения
Вы не можете редактировать свои сообщения
Вы не можете удалять свои сообщения
Вы не можете голосовать в опросах
Вы не можете прикреплять файлы к сообщениям
Вы не можете скачивать файлы