Accordone/Marco Beasley - La Bella Noeva - Le Festival de Maguelone 2011 [Baroque Italian, HDTV 1080i]


 

[Цитировать]

Accordone/Marco Beasley - La Bella Noeva - Le Festival de Maguelone 2011
Год выпуска: 2011
Жанр: Baroque Italian
Продолжительность: 1:20
Язык: Итальянский
Доп. информация: Концерт Accordone на фестивале в Магелоне в 2011
Запись со спутниковой трансляции канала Mezzo Live HD. Записанное обработано Cypheros TS-Doctor без пережатия: обрезка, склейка, чистка.
Музыка Г. Каччини, В. Марини, C. Монтеверди, Г. Стефани, А. Гранди.
Анонc телеканала Mezzo:
Марко Бисли и Гвидо Морини основали ансамбль «Accordone» в 1984 году. Их объединил общий интерес к музыке добаховского периода, старинным инструментам и новаторский музыковедческий подход к проблемам интерпретации. В основе их работы итальянская вокальная музыка бассо континуо XVI - XVII веков.
La Bella Noeva является, в некотором смысле, «манифестом» музыкантов Accordone. В этой программе представлены все стороны их музыкального и драматического таланта. Музыка от григорианского хорала до Монтеверди, от старинной тарантеллы Саленто (в аутентичной реконструкции) до музыки, специально написанной Гвидо Морини, в сочетании с харизматическим голосом Марко Бисли завораживает слушателя и открывает для него репертуар, слишком часто считавшийся областью компетенции специалистов-музыковедов.
Треклист:
1. Guilio Caccini - Udite amanti
2. Guilio Caccini – Amarilli
3. Biagio Marini - Amante lontano dalla sua donna
4. Claudio Monteverdi - Si dolce è 'l tormento
5. Giovanni Stefani - Amante felice
6. Alessandro Grandi - O quam pulchra es
7. Guido Morini - Concerto spiritual
8. Clauio Monteverdi - Laudate dominum
9. Accordone – Alleluja: omnis spiritus laudet Dominum
10. Marco Beasley - Tarantella Primma, siconna e terza
11. Anonimo - La bella noeva
12. Giuseppe Porsile-Guido Morini – La cantata sopra l’arcicalascione
13. Giuseppe di Vittorio – Sona ‘a Battenti
14. Giovanni Capurro-Edouardo di Capua – O sole mio

MediaInfo

Overall bit rate : 6 142 Kbps
Video
ID : 323 (0x143)
Menu ID : 14103 (0x3717)
Format : AVC
Format/Info : Advanced Video Codec
Format profile : Main@L4.0
Format settings, CABAC : Yes
Format settings, ReFrames : 3 frames
Codec ID : 27
Duration : 1h 20mn
Bit rate : 5 580 Kbps
Width : 1 920 pixels
Height : 1 080 pixels
Display aspect ratio : 16:9
Frame rate : 25.000 fps
Standard : Component
Color space : YUV
Chroma subsampling : 4:2:0
Bit depth : 8 bits
Scan type : Interlaced
Scan order : Top Field First
Bits/(Pixel*Frame) : 0.108
Stream size : 3.13 GiB (91%)
Color primaries : BT.709-5, BT.1361, IEC 61966-2-4, SMPTE RP177
Transfer characteristics : BT.709-5, BT.1361
Matrix coefficients : BT.709-5, BT.1361, IEC 61966-2-4 709, SMPTE RP177
Audio
ID : 403 (0x193)
Menu ID : 14103 (0x3717)
Format : MPEG Audio
Format version : Version 1
Format profile : Layer 2
Codec ID : 4
Duration : 1h 20mn
Bit rate mode : Constant
Bit rate : 256 Kbps
Channel(s) : 2 channels
Sampling rate : 48.0 KHz
Video delay : -14ms
Stream size : 147 MiB (4%)
Language : French
Language, more info : Clean effects

Исполнители

Marco Beasley – вокал
Guido Morini - орган, клавесин
Rossella Croce, Elisa Citterio – скрипки
Marco Frezzato – виолончель
Franco Pavan – теорба
Stefano Rocco - архилютня, барочная гитара
Качество видео: HDTV
Формат/Контейнер: TS
Видео кодек: AVC Main@L4.0
Аудио кодек: MP2
Видео поток: 1920х1080, avg. bitrate 5 580 Kbps, 25,000 fps, interlaced scan
Аудио поток: MPEG Layer2, 2 channels, CBR 256 Kbps

Скриншоты




Показать сообщения:    

Текущее время: 10-Дек 08:06

Часовой пояс: UTC + 3


Вы не можете начинать темы
Вы не можете отвечать на сообщения
Вы не можете редактировать свои сообщения
Вы не можете удалять свои сообщения
Вы не можете голосовать в опросах
Вы не можете прикреплять файлы к сообщениям
Вы не можете скачивать файлы