Lacrimae Caravaggio: L\'europe musicale au temps de Caravage / Musical Europe in the time of Caravaggio / Европейская музыка в эпоху Караваджо (Hesperion XXI) [2012, Concert, HDTV 1080i] Festival de Maguelone · Mezzo HD


 

[Цитировать]

Lacrimae Caravaggio: L'europe musicale au temps de Caravage / Musical Europe in the time of Caravaggio / Европейская музыка в эпоху Караваджо (Hespèrion XXI) Festival de Maguelone · Mezzo HD
Год выпуска: 2012
Mercredi 27 juin - 21h00
Лейбл: Mezzo Live HD
Страна-производитель: France
Жанр: Concert
Продолжительность: 01:22:25
Режиссер: Olivier Simonnet
Качество видео: HDTV
Формат/Контейнер: TS
Видео кодек: H.264
Аудио кодек: AC3
Видео поток: AVC, 1920×1080i, 8000 Kbps, 25 fps
Аудио поток: AC3, 192 Kbps, 48.0 KHz, 2 channels
Исполнители:
Hespèrion XXI
Jordi Savall
Ferran Savall
chant / voice
Jordi Savall
dessus de viole /soprano viola da gamba
Philippe Pierlot
viole de gambe altus / alto viola da gamba
Sergi Casademunt
viole de gambe ténor / tenor viola da gamba
Lorenz Dufschmidt
viole de gambe basse / bass viola da gamba
Xavier Puertas
violone
Xavier Diaz-Latorre
luth, théorbe & guitare / lute theorbo & guitar
Pedro Estevan
percussion
Треклист: Anonyme, John Dowland, Orlando Gibbons, Willliam Brade, Antonio Cabezón, Joan Cabanilles, Samuel Scheidt, Leon Battista Alberti, Luigi Rossi, Antonio Valente & Jordi Savall

Скриншоты


MediaInfo

General
ID : 1 (0x1)
Complete name : E:\Lacrimae Caravaggio.ts
Format : MPEG-TS
File size : 4.71 GiB
Duration : 1h 22mn
Overall bit rate : 8 174 Kbps
Maximum Overall bit rate : 35.5 Mbps
Video
ID : 4113 (0x1011)
Menu ID : 1 (0x1)
Format : AVC
Format/Info : Advanced Video Codec
Format profile : High@L4.0
Format settings, CABAC : Yes
Format settings, ReFrames : 3 frames
Codec ID : 27
Duration : 1h 22mn
Bit rate : 7 576 Kbps
Width : 1 920 pixels
Height : 1 080 pixels
Display aspect ratio : 16:9
Frame rate : 25.000 fps
Standard : Component
Color space : YUV
Chroma subsampling : 4:2:0
Bit depth : 8 bits
Scan type : Interlaced
Scan order : Top Field First
Bits/(Pixel*Frame) : 0.146
Stream size : 4.36 GiB (93%)
Color primaries : BT.709-5, BT.1361, IEC 61966-2-4, SMPTE RP177
Transfer characteristics : BT.709-5, BT.1361
Matrix coefficients : BT.709-5, BT.1361, IEC 61966-2-4 709, SMPTE RP177
Audio
ID : 4352 (0x1100)
Menu ID : 1 (0x1)
Format : AC-3
Format/Info : Audio Coding 3
Codec ID : 129
Duration : 1h 22mn
Bit rate : 192 Kbps
Channel(s) : 2 channels
Sampling rate : 48.0 KHz
Compression mode : Lossy
Stream size : 113 MiB (2%)
Language : French



Показать сообщения:    

Текущее время: 07-Дек 13:39

Часовой пояс: UTC + 3


Вы не можете начинать темы
Вы не можете отвечать на сообщения
Вы не можете редактировать свои сообщения
Вы не можете удалять свои сообщения
Вы не можете голосовать в опросах
Вы не можете прикреплять файлы к сообщениям
Вы не можете скачивать файлы