Giovanni Battista Pergolesi - Stabat Mater (Anna Netrebko, Marianna Pizzolato / Bertrand de Billy) / Джованни Батиста Перголези - Стабат Матер (Анна Нетребко, Марианна Пиццолато / Бертран де Бийи) [2010 г., Concert, HDTVRip]


 

[Цитировать]

Giovanni Battista Pergolesi - Stabat Mater (Anna Netrebko, Marianna Pizzolato / Bertrand de Billy) / Джованни Батиста Перголези - Стабат Матер (Анна Нетребко, Марианна Пиццолато / Бертран де Бийи)
Год выпуска: 2010.
Жанр: Классика, классический вокал.
Исполнители: Анна Нетребко, сопрано. Марианна Пиццолато, мецосопрано.
Продолжительность: 01:01:13.
Трэклист:
Titles
1. Joseph Haydn: The Seven Last Word of Our Saviour on the Cross
L'Introduzione
Sonata I
2. Johann Sebastian Bach: St Matthew Passion (Marianna Pizzolato)
3. Giovanni Battista Pergolesi: Stabat Mater (Anna Netrebko, Marianna Pizzolato)
Stabat mater dolorosa
Cuius animam gementem
O quam tristis et afflicta
Quae moerebat et dolebat
Quis est homo, qui non fleret
Vidit suum dulcem natum
Eia, Mater, fons amoris
Fac, ut ardeat cor meum
Sancta Mater, istud agas
Fac, ut portem Christi mortem
Inflammatus et accensus
Quando corpus morietur - Amen
End
Описание: Удивительный по красоте концерт в Дрезденском соборе Богоматери, 2010 год.
Доп. информация: Качественная видеозапись со спутникового телеканала UNITEL CLASSICA.

Качество: HDTVRip - DVD5
Формат: MKV
Видео кодек: H.264
Аудио кодек: AC-3
Видео: 1920 x 1080i (16х9), 10.5Mbps, 25 fps, AVC
Аудио: 48000Hz 384kb/s, 6 channels, AC-3

MediaInfo

General
Unique ID : 249461483879937357768096863124861756720 (0xBBAC88BFDC61D290B1EB7BD0F7582530)
Complete name : F:\Opera\Unitel.tv\Pergolesi_Stabat_Mater_Staatskapelle_Dresden_2010.mkv
Format : Matroska
File size : 4.75 GiB
Duration : 1h 1mn
Overall bit rate : 11.1 Mbps
Encoded date : UTC 2012-09-21 11:49:49
Writing application : mkvmerge v5.7.0 ('The Whirlwind') built on Jul 8 2012 20:08:51
Writing library : libebml v1.2.3 + libmatroska v1.3.0
Video
ID : 1
Format : AVC
Format/Info : Advanced Video Codec
Format profile : High@L4.0
Format settings, CABAC : Yes
Format settings, ReFrames : 4 frames
Codec ID : V_MPEG4/ISO/AVC
Duration : 1h 1mn
Bit rate : 10.5 Mbps
Width : 1 920 pixels
Height : 1 080 pixels
Display aspect ratio : 16:9
Frame rate : 50.000 fps
Original frame rate : 25.000 fps
Standard : Component
Color space : YUV
Chroma subsampling : 4:2:0
Bit depth : 8 bits
Scan type : Interlaced
Scan order : Top Field First
Bits/(Pixel*Frame) : 0.101
Stream size : 4.49 GiB (95%)
Language : German
Color primaries : BT.709-5, BT.1361, IEC 61966-2-4, SMPTE RP177
Transfer characteristics : BT.709-5, BT.1361
Matrix coefficients : BT.709-5, BT.1361, IEC 61966-2-4 709, SMPTE RP177
Audio
ID : 2
Format : AC-3
Format/Info : Audio Coding 3
Mode extension : CM (complete main)
Codec ID : A_AC3
Duration : 1h 1mn
Bit rate mode : Constant
Bit rate : 384 Kbps
Channel(s) : 6 channels
Channel positions : Front: L C R, Side: L R, LFE
Sampling rate : 48.0 KHz
Bit depth : 16 bits
Compression mode : Lossy
Delay relative to video : 15ms
Stream size : 168 MiB (3%)
Language : German
Menu
00:00:00.000 : :Titles
00:00:52.000 : :1.Joseph Haydn: The Seven Last Word of Our Saviour on the Cross
00:01:01.000 : : L'Introduzione
00:06:35.000 : : Sonata I
00:13:02.000 : :2.Johann Sebastian Bach: St Matthew Passion (Marianna Pizzolato)
00:20:51.000 : :3.Giovanni Battista Pergolesi: Stabat Mater (Anna Netrebko, Marianna Pizzolato)
00:21:30.000 : : Stabat mater dolorosa
00:25:24.000 : : Cuius animam gementem
00:27:34.000 : : O quam tristis et afflicta
00:29:43.000 : : Quae moerebat et dolebat
00:32:00.000 : : Quis est homo, qui non fleret
00:34:56.000 : : Vidit suum dulcem natum
00:38:52.000 : : Eia, Mater, fons amoris
00:40:55.000 : : Fac, ut ardeat cor meum
00:42:55.000 : : Sancta Mater, istud agas
00:48:28.000 : : Fac, ut portem Christi mortem
00:52:15.000 : : Inflammatus et accensus
00:54:24.000 : : Quando corpus morietur - Amen
00:59:12.000 : :End

Скриншоты





Показать сообщения:    

Текущее время: 08-Дек 12:57

Часовой пояс: UTC + 3


Вы не можете начинать темы
Вы не можете отвечать на сообщения
Вы не можете редактировать свои сообщения
Вы не можете удалять свои сообщения
Вы не можете голосовать в опросах
Вы не можете прикреплять файлы к сообщениям
Вы не можете скачивать файлы