Jonas Kaufmann – Sehnsucht Desire / Йонас Кауфман - Арии из немецких опер (Mozart, Beethoven, Weber, Wagner, Lehar) (Michael Güttler) [2010 г., Concert, HDTVRip]


 

[Цитировать]

Jonas Kaufmann – Sehnsucht Desire / Йонас Кауфман - Арии из немецких опер (Mozart, Beethoven, Weber, Wagner, Lehar) (Michael Güttler)
Год выпуска: 2010
Лейбл: Unitel Classica
Страна-производитель: Германия
Жанр: Классический вокал
Продолжительность: 00:57:51
Язык: немецкий
Перевод: отсутствует
Субтитры: отсутствуют
Исполнители: Йонас Кауфманн, тенор.
Münchner Rundfunkorchester.
Дирижер: Michael Güttler.
Трэклист:
01. Wolfgang Amadeus Mozart, Die Zauberflöte: "Dies Bildnis ist bezaubernd schön"
02. Ludwig van Beethoven, Fidelio: "Gott! Welch Dunkel Hier!"
03. Carl Maria von Weber, Der Freischütz: "Nein, länger trag ich nicht die Qualen"
04. Richard Wagner, Die Walküre: "Winterstürme wichen dem Wonnemond"
05. Richard Wagner, Parsifal: "Amfortas! Die Wunde!"
06. Richard Wagner, Lohengrin: Vorspiel, 1. Akt
07. Richard Wagner, Lohengrin: "In fernem Land unnahbar euren Sinnen"
08. Franz Lehar, Giuditta: "Freunde, das Leben ist lebenswert"
Описание: Концерт выдающегося тенора современности Йонаса Кауфмана, 2010 г.
Доп. информация: Качественная видеозапись со спутникового телеканала UNITEL CLASSICA.

Качество: HDTVRip
Формат: MKV
Видео кодек: H.264
Аудио кодек: AC-3
Видео: 1920 x 1080i (16х9), 10.5Mbps, 25 fps, AVC
Аудио: 48000Hz 384kb/s, 2 channels, AC-3

MediaInfo

General
Unique ID : 212473226717366079833832716592032788427 (0x9FD8DADF6A753311B4B8A3CFF0742FCB)
Complete name : F:\Opera\Unitel.tv\Jonas_Kaufmann_Sehnsucht_2010.mkv
Format : Matroska
File size : 4.49 GiB
Duration : 57mn 51s
Overall bit rate : 11.1 Mbps
Encoded date : UTC 2012-09-23 11:58:03
Writing application : mkvmerge v5.7.0 ('The Whirlwind') built on Jul 8 2012 20:08:51
Writing library : libebml v1.2.3 + libmatroska v1.3.0
Video
ID : 1
Format : AVC
Format/Info : Advanced Video Codec
Format profile : High@L4.0
Format settings, CABAC : Yes
Format settings, ReFrames : 4 frames
Codec ID : V_MPEG4/ISO/AVC
Duration : 57mn 51s
Bit rate : 10.5 Mbps
Width : 1 920 pixels
Height : 1 080 pixels
Display aspect ratio : 16:9
Frame rate : 50.000 fps
Original frame rate : 25.000 fps
Standard : Component
Color space : YUV
Chroma subsampling : 4:2:0
Bit depth : 8 bits
Scan type : Interlaced
Scan order : Top Field First
Bits/(Pixel*Frame) : 0.101
Stream size : 4.24 GiB (95%)
Language : German
Color primaries : BT.709-5, BT.1361, IEC 61966-2-4, SMPTE RP177
Transfer characteristics : BT.709-5, BT.1361
Matrix coefficients : BT.709-5, BT.1361, IEC 61966-2-4 709, SMPTE RP177
Audio
ID : 2
Format : AC-3
Format/Info : Audio Coding 3
Mode extension : CM (complete main)
Codec ID : A_AC3
Duration : 57mn 51s
Bit rate mode : Constant
Bit rate : 384 Kbps
Channel(s) : 2 channels
Channel positions : Front: L R
Sampling rate : 48.0 KHz
Bit depth : 16 bits
Compression mode : Lossy
Delay relative to video : 21ms
Stream size : 159 MiB (3%)
Language : German
Menu
00:00:00.000 : :Title
00:00:26.000 : :01. Wolfgang Amadeus Mozart, Die Zauberflöte: "Dies Bildnis ist bezaubernd schön"
00:04:59.000 : :02. Ludwig van Beethoven, Fidelio: "Gott! Welch Dunkel Hier!"
00:15:52.000 : :03. Carl Maria von Weber, Der Freischütz: "Nein, länger trag ich nicht die Qualen"
00:23:26.000 : :04. Richard Wagner, Die Walküre: "Winterstürme wichen dem Wonnemond"
00:27:10.000 : :05. Richard Wagner, Parsifal: "Amfortas! Die Wunde!"
00:36:50.000 : :06. Richard Wagner, Lohengrin: Vorspiel, 1. Akt
00:43:35.000 : :07. Richard Wagner, Lohengrin: "In fernem Land unnahbar euren Sinnen"
00:53:27.000 : :08. Franz Lehar, Giuditta: "Freunde, das Leben ist lebenswert"

Скриншоты





Показать сообщения:    

Текущее время: 06-Дек 20:58

Часовой пояс: UTC + 3


Вы не можете начинать темы
Вы не можете отвечать на сообщения
Вы не можете редактировать свои сообщения
Вы не можете удалять свои сообщения
Вы не можете голосовать в опросах
Вы не можете прикреплять файлы к сообщениям
Вы не можете скачивать файлы