Римский-Корсаков, Чайковский, Dvorak, R. Strauss - Романсы (Анна Нетребко / Anna Netrebko, Даниэль Баренбойм / Daniel Barenboim) [2010 г., Concert, HDTVRip]


 

[Цитировать]

Анна Нетребко и Даниэль Баренбойм. Русские романсы. Концерт в Берлинской филармонии в 2010 году. Anna Netrebko & Daniel Barenboim. Philarmonie Berlin 2010.
Год выпуска: 2010
Жанр: Классический вокал
Исполнители: Анна Нетребко, сопрано. Даниэль Баренбойм, фортепиано.
Продолжительность: 01:21:37
Трэклист:
01. «О чём в тиши ночей» (Николай Римский-Корсаков - А. Майков)
02. «Прости! Не помни дней паденья…» (Н. Римский-Корсаков - Н. Некрасов)
03. «Не ветер, вея с высоты» (Н. Римский-Корсаков - А. Толстой)
04. «Звонче жаворонка пенье» (Н. Римский-Корсаков – А. Толстой)
05. «На холмах Грузии» (Н. Римский-Корсаков – А. Пушкин)
06. «В царство розы и вина приди» (Н. Римский-Корсаков – Хафиз / А. Фет)
07. «Песня Зулейки» (Н. Римский-Корсаков – Д. Байрон / И. Козлов)
08. «Пленившись розой, соловей» (Н. Римский-Корсаков - А. Кольцов)
09. «Редеет облаков летучая гряда» (Н. Римский-Корсаков - А. Пушкин)
10. «Нимфа» (Н. Римский-Корсаков – А. Майков)
11. «Сон в летнюю ночь» (Н. Римский-Корсаков – А. Майков)
12. «Скажи, о чём в тени ветвей» (Петр Чайковский - В. Соллогуб)
13. «Забыть так скоро» (П. Чайковский – А. Апухтин)
14. «Ночи безумные» (П. Чайковский - А. Апухтин)
15. «Отчего?» (П. Чайковский - Г. Гейне / Л. Мей)
16. Серенада «О, Дитя» (П. Чайковский – К. Р.)
17. «Колыбельная песня» (П. Чайковский - А. Майков)
18. «Я ли в поле да не травушка была» (П. Чайковский - И. Суриков)
19. «Средь мрачных дней» (П. Чайковский - Д. Ратгауз)
20. «День ли царит» (П. Чайковский – А. Апухтин)
21. «Kdyz Mne Stara Matka» (Antonin Dvorak - A. Heyduk)
22. «Cäcilie» (Richard Strauss - H. Hart)
Описание: Полная версия концерта Анны Нетребко в Берлинской Филармонии 2010 г.
Доп. информация: Качественная видеозапись со спутникового телеканала UNITEL CLASSICA.

Качество: HDTVRip
Формат: MKV
Видео кодек: H.264
Аудио кодек: AC-3
Видео: 1920 x 1080i (16х9), 10.5Mbps, 25 fps, AVC
Аудио: 48000Hz 384kb/s, 6 channels, AC-3, Russian

MediaInfo

General
Unique ID : 180486613802006509604495167212405855023 (0x87C87518B4BD7BDB8F53ACC731EF132F)
Complete name : H:\Anna.mkv
Format : Matroska
File size : 6.33 GiB
Duration : 1h 21mn
Overall bit rate : 11.1 Mbps
Encoded date : UTC 2012-08-29 15:00:12
Writing application : mkvmerge v5.7.0 ('The Whirlwind') built on Jul 8 2012 20:08:51
Writing library : libebml v1.2.3 + libmatroska v1.3.0
Video
ID : 1
Format : AVC
Format/Info : Advanced Video Codec
Format profile : High@L4.0
Format settings, CABAC : Yes
Format settings, ReFrames : 4 frames
Codec ID : V_MPEG4/ISO/AVC
Duration : 1h 21mn
Bit rate : 10.5 Mbps
Width : 1 920 pixels
Height : 1 080 pixels
Display aspect ratio : 16:9
Frame rate : 50.000 fps
Original frame rate : 25.000 fps
Standard : Component
Color space : YUV
Chroma subsampling : 4:2:0
Bit depth : 8 bits
Scan type : Interlaced
Scan order : Top Field First
Bits/(Pixel*Frame) : 0.101
Stream size : 5.99 GiB (95%)
Language : German
Color primaries : BT.709-5, BT.1361, IEC 61966-2-4, SMPTE RP177
Transfer characteristics : BT.709-5, BT.1361
Matrix coefficients : BT.709-5, BT.1361, IEC 61966-2-4 709, SMPTE RP177
Audio
ID : 2
Format : AC-3
Format/Info : Audio Coding 3
Mode extension : CM (complete main)
Codec ID : A_AC3
Duration : 1h 21mn
Bit rate mode : Constant
Bit rate : 384 Kbps
Channel(s) : 6 channels
Channel positions : Front: L C R, Side: L R, LFE
Sampling rate : 48.0 KHz
Bit depth : 16 bits
Compression mode : Lossy
Delay relative to video : 15ms
Stream size : 224 MiB (3%)
Language : Russian
Menu
00:00:00.000 : :Титры
00:00:59.215 : :01. «О чём в тиши ночей» (Н. Римский-Корсаков - А. Майков)
00:03:19.215 : :02. «Прости! Не помни дней паденья…» (Н. Римский-Корсаков - Н. Некрасов)
00:05:05.215 : :03. «Не ветер, вея с высоты» (Н. Римский-Корсаков - А. Толстой)
00:07:35.215 : :04. «Звонче жаворонка пенье» (Н. Римский-Корсаков – А. Толстой)
00:08:57.215 : :05. «На холмах Грузии» (Н. Римский-Корсаков – А. Пушкин)
00:11:25.215 : :06. «В царство розы и вина приди» (Н. Римский-Корсаков – Хафиз / А. Фет)
00:14:09.215 : :07. «Песня Зулейки» (Н. Римский-Корсаков – Д. Байрон / И. Козлов)
00:16:03.215 : :08. «Пленившись розой, соловей» (Н. Римский-Корсаков - А. Кольцов)
00:19:57.215 : :09. «Редеет облаков летучая гряда» (Н. Римский-Корсаков - А. Пушкин)
00:23:35.215 : :10. «Нимфа» (Н. Римский-Корсаков – А. Майков)
00:27:41.215 : :11. «Сон в летнюю ночь» (Н. Римский-Корсаков – А. Майков)
00:34:59.215 : :12. «Скажи, о чём в тени ветвей» (П. Чайковский - В. Соллогуб)
00:38:53.215 : :13. «Забыть так скоро» (П. Чайковский – А. Апухтин)
00:42:22.215 : :14. «Ночи безумные» (П. Чайковский - А. Апухтин)
00:45:25.215 : :15. «Отчего?» (П. Чайковский - Г. Гейне / Л. Мей)
00:49:19.215 : :16. Серенада «О, Дитя» (П. Чайковский – К. Р.)
00:53:05.215 : :17. «Колыбельная песня» (П. Чайковский - А. Майков)
00:58:16.215 : :18. «Я ли в поле да не травушка была» (П. Чайковский - И. Суриков)
01:04:35.215 : :19. «Средь мрачных дней» (П. Чайковский - Д. Ратгауз)
01:06:57.215 : :20. «День ли царит» (П. Чайковский – А. Апухтин)
01:13:20.215 : :21. «Kdyz Mne Stara Matka» (A. Dvořák - A. Heyduk)
01:17:47.215 : :22. «Cäcilie» (R. Strauss - H. Hart)

Скриншоты





Показать сообщения:    

Текущее время: 04-Дек 02:52

Часовой пояс: UTC + 3


Вы не можете начинать темы
Вы не можете отвечать на сообщения
Вы не можете редактировать свои сообщения
Вы не можете удалять свои сообщения
Вы не можете голосовать в опросах
Вы не можете прикреплять файлы к сообщениям
Вы не можете скачивать файлы