Иоганн Себастьян Бах: Бранденбургские концерты №1-6 - Аббадо / Johann Sebastian Bach: Brandenburgische Konzerte №1-6 - Abbado [2008, Classical, BDRip]


 

[Цитировать]

Иоганн Себастьян Бах: Бранденбургские концерты №1-6 - Аббадо / Johann Sebastian Bach: Brandenburgische Konzerte №1-6 - Abbado
Год выпуска: 2008
Жанр: Classical
Продолжительность: 1ч 39м 17с
Исполнители: Дирижер: Claudio Abbado
Оркестр: Orchestra Mozart Giuliano Carmignola
Файл намеренно срипован программой MeGui с установкой для кодека "Constant Quality" для достижения максимально возможного качества после сжатия
Качество видео: BDRip
Формат/Контейнер: MKV
Видео кодек: H.264
Аудио кодек: AC3
Видео поток: MPEG-4 AVC Video 3871 Кбит/сек 720i / 29,970 fps / 16:9 / High Profile 3.1
Аудио поток: №1: AC-3 640 Кбит/сек / 48,0 КГц / 2.0ch
Аудио поток: №2: AC-3 640 Кбит/сек / 48,0 КГц / 5.1ch

Треклист

Johann Sebastian Bach
Concerto No. 1 in F major
1. Allegro
2. Adagio
3. Allegro
4. Menuetto (Trio I, Polacco, Trio II)
Concerto No. 3 in G major
1. Allegro
2. Adagio
3. Allegro
Concerto No. 5 in D major
1. Allegro
2. Affettuoso
3. Allegro
Concerto No.6 in B flat major
1. Allegro
2. Adagio ma non tanto
3. Allegro
Concerto No. 4 in G major
1. Allegro
2. Andante
3. Presto
Concerto No. 2 in F major
1. Allegro
2. Andante
3. Allegro assai
Encore
1. Concerto No. 2 Allegro assai

Скриншоты



Источник рипа

http://teatrix.ru/viewtopic.php?t=10595 (21.2 GB)

MediaInfo

Общее
Уникальный идентификатор : 174979742576954509672574652228583474319 (0x83A3DF61FE58541EBD5EBCD2C6BAC48F)
Полное имя : E:\Expiriment Video\Bach - Brandenburg Concertos 1-6.mkv
Формат : Matroska
Версия формата : Version 2
Размер файла : 3,64 Гбайт
Продолжительность : 1 ч. 39 м.
Общий поток : 5255 Кбит/сек
Дата кодирования : UTC 2012-08-19 15:13:46
Программа кодирования : mkvmerge v5.7.0 ('The Whirlwind') built on Jul 8 2012 20:08:51
Библиотека кодирования : libebml v1.2.3 + libmatroska v1.3.0
Видео
Идентификатор : 1
Формат : AVC
Формат/Информация : Advanced Video Codec
Профиль формата : High@L3.1
Параметр CABAC формата : Да
Параметр ReFrames формата : 4 кадра
Режим смешивания : Header stripping
Идентификатор кодека : V_MPEG4/ISO/AVC
Продолжительность : 1 ч. 39 м.
Битрейт : 3871 Кбит/сек
Ширина : 1280 пикселей
Высота : 720 пикселей
Соотношение сторон : 16:9
Частота кадров : 29,970 кадров/сек
Цветовое пространство : YUV
Субдискретизация насыщенности : 4:2:0
Битовая глубина : 8 бит
Тип развёртки : Прогрессивная
Бит/(Пиксели*Кадры) : 0.140
Размер потока : 2,68 Гбайт (74%)
Библиотека кодирования : x264 core 125 r2200 999b753
Настройки программы : cabac=1 / ref=3 / deblock=1:0:0 / analyse=0x3:0x113 / me=hex / subme=7 / psy=1 / psy_rd=1.00:0.00 / mixed_ref=1 / me_range=16 / chroma_me=1 / trellis=1 / 8x8dct=1 / cqm=0 / deadzone=21,11 / fast_pskip=1 / chroma_qp_offset=-2 / threads=6 / lookahead_threads=1 / sliced_threads=0 / nr=0 / decimate=1 / interlaced=0 / bluray_compat=0 / constrained_intra=0 / bframes=3 / b_pyramid=2 / b_adapt=1 / b_bias=0 / direct=1 / weightb=1 / open_gop=0 / weightp=2 / keyint=300 / keyint_min=29 / scenecut=40 / intra_refresh=0 / rc_lookahead=40 / rc=crf / mbtree=1 / crf=20.0 / qcomp=0.60 / qpmin=0 / qpmax=69 / qpstep=4 / ip_ratio=1.40 / aq=1:1.00
Язык : English
Default : Да
Forced : Нет
Аудио #1
Идентификатор : 2
Формат : AC-3
Формат/Информация : Audio Coding 3
Расширение режима : CM (complete main)
Параметр Endianness формата : Big
Режим смешивания : Header stripping
Идентификатор кодека : A_AC3
Продолжительность : 1 ч. 39 м.
Вид битрейта : Постоянный
Битрейт : 640 Кбит/сек
Каналы : 2 канала
Расположение каналов : Front: L R
Частота : 48,0 КГц
Битовая глубина : 16 бит
Метод сжатия : С потерями
Размер потока : 455 Мбайт (12%)
Заголовок : AC_3 2.0 640 kbit/s
Default : Да
Forced : Нет
Аудио #2
Идентификатор : 3
Формат : AC-3
Формат/Информация : Audio Coding 3
Расширение режима : CM (complete main)
Параметр Endianness формата : Big
Режим смешивания : Header stripping
Идентификатор кодека : A_AC3
Продолжительность : 1 ч. 39 м.
Вид битрейта : Постоянный
Битрейт : 640 Кбит/сек
Каналы : 6 каналов
Расположение каналов : Front: L C R, Side: L R, LFE
Частота : 48,0 КГц
Битовая глубина : 16 бит
Метод сжатия : С потерями
Размер потока : 455 Мбайт (12%)
Заголовок : AC_3 5.1 640 kbit/s
Default : Нет
Forced : Нет
Меню
00:00:00.000 : en:
00:00:47.047 : en:Brandenburg Concerto No.1 - Allegro
00:04:36.409 : en:Adagio
00:07:42.395 : en:Allegro
00:11:35.094 : en:Menuet - Trio - Menuet - Polonaise - Menuet - Trio - Menuet
00:18:49.995 : en:Brandenburg Concerto No.3 - Allegro
00:24:05.944 : en:Adagio ma non tanto
00:24:31.236 : en:Allegro
00:29:09.514 : en:Brandenburg Concerto No.5 - Allegro
00:38:01.145 : en:Affettuoso
00:43:04.181 : en:Allegro
00:48:12.422 : en:Brandenburg Concerto No.6 - Allegro
00:54:05.442 : en:Adagio ma non tanto
00:58:55.465 : en:Allegro
01:04:31.601 : en:Brandenburg Concerto No.4 - Allegro
01:11:27.316 : en:Andante
01:15:16.879 : en:Presto
01:20:25.086 : en:Brandenburg Concerto No.2 - Allegro
01:25:10.572 : en:Andante
01:28:59.200 : en:Allegro Assai
01:33:49.490 : en:Encore
01:36:52.239 : en:
01:39:32.266 : en:



Показать сообщения:    

Текущее время: 06-Дек 17:04

Часовой пояс: UTC + 3


Вы не можете начинать темы
Вы не можете отвечать на сообщения
Вы не можете редактировать свои сообщения
Вы не можете удалять свои сообщения
Вы не можете голосовать в опросах
Вы не можете прикреплять файлы к сообщениям
Вы не можете скачивать файлы