Ainhoa Arteta y nuestra zarzuela. Lo mejor de la zarzuela (cond. Enrique Garcia Asensio) / Айноа Артета. Лучшие сарсуэлы. Гала-концерт в Мадриде [2007/1996, La Zarzuela, DVD5]


 

[Цитировать]

Ainhoa Arteta y nuestra zarzuela. Lo mejor de la zarzuela
Айноа Артета. Лучшие сарсуэлы.
-- Год выпуска: 2007
Дата записи: 20 декабря 1996
Лейбл: RTVE & Planeta DeAgostini
Страна-производитель: Espana
Жанр: La Zarzuela
Продолжительность: 95 min
Язык: Испанский
Перевод: Отсутствует
Субтитры: Испанские
Исполнители:
Айноа Артета (Ainhoa Arteta), Soprano
Оркестр: Orquesta Sinfonica de RTVE
Хор: Coro de RTVE
Дирижёр: Enrique Garcia Asensio
Режиссёр: Jose Reno Vales
Teatro Monumental de MadridОписание:
Малые и Великие сарсуэлы в исполнении хора и
блистательной испанской колоратуры Айноа Артеты.
СЭМПЛ
Качество видео: DVD5
Формат/Контейнер: DVDVideo
Видео кодек: MPEG2
Аудио кодек: AC3
Видео поток: PAL 4:3 720x576@768x576; 25,000 fps.
Аудио поток: Dolby AC3, 2 (L,R) ch, 384 kbps; 48,0 kHz

Содержание концерта

EL BAILE DE LUIS ALONSO - lntermedio
Musica: Geronimo Gimenez
Libreto: Javier de Burgos
Estreno: 27 de febrero de 1896, Teatro de la Zarzuela, Madrid

LA GRAN VIA - Polca de las calles - Tango de la Menegilda - Chotis del Eliseo madrileno
Musica: Federico Chueca у Joaquin Valverde
Libreto: Felipe Perez Gonzalez
Estreno: 2 de julio de 1886, Teatro Felipe, Madrid

DONA FRANCISQUITA - Fandango - Coro de romanticos
Musica: Amadeu Vives
Libreto: Federico Romero у Guillermo Fernandez Shaw
Estreno: 17 de octubre de 1923, Teatro Apolo, Madrid

EL BARBERILLO DE LAVAPIES - Cancion de Paloma
Musica: Francisco Asenjo Barbieri
Libreto: Luis Mariano de Larra
Estreno: 18 de diciembre de 1874, Teatro de la Zarzuela, Madrid

AGUA, AZUCARILLOS Y AGUARDIENTE - Pasacalle de barquilleros - Coro de nineras
Musica: Federico Chueca
Libreto: Miguel Ramos Carrion
Estreno: 23 de junio de 1897, Teatro Apolo, Madrid

LA DEL MANOJO DE ROSAS - Romanza de Ascension
Musica: Pablo Sorozabal
Libreto: Francisco Ramos de Castro у Anselmo Cuadrado Carreno
Estreno: 13 de noviembre de 1934, Teatro Fuencarral, Madrid

EL CASERIO - Preludio Acto II
Musica: Jesus Guridi
Libreto: Federico Romero у Guillermo Fernandez Shaw
Estreno: 11 de noviembre de 1926, Teatro de la Zarzuela, Madrid

DON MANOLITO - Canto a Madrid
Musica: Pablo Sorozabal
Libreto: Luis Fernandez de Sevilla у Anselmo Cuadrado Carreno
Estreno: 24 de abril de 1943, Teatro Reina Victoria, Madrid

LA CANCION DEL OLVIDO - Cancion de Rosina
Musica: Jose Serrano
Libreto: Federico Romero у Guillermo Fernandez Shaw
Estreno: 17 de noviembre de 1916, Teatro Lirico, Valencia

EL TAMBOR DE GRANADEROS - Preludio
Musica: Ruperto Chapi
Libreto: Emilio Sanchez Pastor
Estreno: 16 de junio de 1894, Teatro Eslava, Madrid

EL REY QUE RABIO - Coro de doctores
Musica: Ruperto Chapi
Libreto: Miguel Ramos Carrion у Vital Aza
Estreno: 21 de abril de 1891, Teatro de la Zarzuela, Madrid

LAS HIJAS DEL ZEBEDEO - Las carceleras
Musica: Ruperto Chapi
Libreto: Jose Estremera
Estreno: 9 de julio de 1889, Teatro Maravillas, Madrid

LA TEMPRANICA - La tarantula
Musica: Geronimo Gimenez
Libreto: Julian Romea Castro
Estreno: 19 de septiembre de 1900, Teatro de la Zarzuela, Madrid

LA BODA DE LUIS ALONSO - lntermedio
Musica: Geronimo Gimenez
Libreto: Javier de Burgos
Estreno: 27 de enero de 1897, Teatro de la Zarzuela, Madrid

LA MARCHENERA - Petenera
Musica: Federico Moreno Torroba
Libreto: Ricardo Gonzalez del Того у Fernando Luque
Estreno: 7 de abril de 1928, Teatro de la Zarzuela, Madrid

Содержание DVD

Концерт, биография сопрано, треклисты исполнителей и композиторов, история жанра.

СкриншотыМеню


MediaInfo

Общее
Полное имя                       : Ainhoa Arteta.Lo mejor de la zarzuela.1997\VIDEO_TS\VTS_01_1.VOB
Формат                           : MPEG-PS
Размер файла                     : 1024 Мбайт
Продолжительность                : 23 м.
Общий поток                      : 6076 Кбит/сек
Видео
Идентификатор                    : 224 (0xE0)
Формат                           : MPEG Video
Версия формата                   : Version 2
Профиль формата                  : Main@Main
Параметр BVOP формата            : Нет
Параметр матрицы формата         : Выборочная
Параметр GOP формата             : N=1
Продолжительность                : 23 м.
Битрейт                          : 5571 Кбит/сек
Максимальный битрейт             : 8000 Кбит/сек
Ширина                           : 720 пикселей
Высота                           : 576 пикселей
Соотношение сторон               : 4:3
Частота кадров                   : 25,000 кадров/сек
Стандарт вещания                 : PAL
Цветовое пространство            : YUV
Субдискретизация насыщенности    : 4:2:0
Битовая глубина                  : 8 бит
Тип развёртки                    : Прогрессивная
Порядок развёртки                : Верхнее поле первое
Метод сжатия                     : С потерями
Бит/(Пиксели*Кадры)              : 0.537
Размер потока                    : 939 Мбайт (92%)
Аудио
Идентификатор                    : 189 (0xBD)-128 (0x80)
Формат                           : AC-3
Формат/Информация                : Audio Coding 3
Расширение режима                : CM (complete main)
Режим смешивания                 : DVD-Video
Продолжительность                : 6 с. 688 мс.
Вид битрейта                     : Постоянный
Битрейт                          : 384 Кбит/сек
Каналы                           : 2 канала
Расположение каналов             : Front: L R
Частота                          : 48,0 КГц
Битовая глубина                  : 16 бит
Метод сжатия                     : С потерями
Размер потока                    : 314 Кбайт (0%)
Текст
Идентификатор                    : 189 (0xBD)-32 (0x20)
Формат                           : RLE
Формат/Информация                : Run-length encoding
Режим смешивания                 : DVD-Video
Продолжительность                : 23 м.



Показать сообщения:    

Текущее время: 08-Дек 21:13

Часовой пояс: UTC + 3


Вы не можете начинать темы
Вы не можете отвечать на сообщения
Вы не можете редактировать свои сообщения
Вы не можете удалять свои сообщения
Вы не можете голосовать в опросах
Вы не можете прикреплять файлы к сообщениям
Вы не можете скачивать файлы