Tarja Turunen & Harus - IN CONCERT - Live At Sibelius Hall [2011, Classic/Operatic/Christmas Song, BDRip 720p]


 

[Цитировать]

Tarja Turunen & Harus - IN CONCERT - Live At Sibelius Hall
Год выпуска: 2011
Лейбл: NEMS Enterprises S.R.L.
Жанр: Classic/Operatic/Christmas Song
Продолжительность: 01:14:33
Исполнители: Тарья Турунен и Harus
Описание: Тарья Турунен и Harus - это уникальная смесь органа, электрогитары, перкуссии и голоса. Благодаря особой манере Тарьи, придающей ее музыке теплоту и мягкость, альбом понравится как преданным поклонниками певицы, так и любителям классической музыки. За Тарьей прочно закрепился статус звезды в рамках тяжелой музыки. Harus позволит ей, смешивая различные жанры и музыкальные культуры, начать новое путешествие.
В переводе с финского - “harus”, специфическое и редко употребляемое слово, означает четыре троса, удерживающие палатку, или трос, удерживающий мачту на парусном судне. Оба значение помогают описать новый проект Тарьи: четыре равнозначных музыканта четырех различных школ создают изысканную классическую музыку, в которой традиция и эксперимент идут рука об руку.
Треклист:
01. Heinillä Härkien
02. Ave Maria Op. 80
03. Varpunen Jouluaamuna
04. Maa On Niin Kaunis
05. Concert Etude
06. En Etsi Valtaa Loistoa
07. Arkihuolesi Kaikki Heitä
08. Improvisation on Christmas Themes
09. Ave Maria
10. You Would Have Loved This
11. Astral Bells
12. Ave Maria
13. Walking In The Air
Качество видео: BDRip
Формат/Контейнер: MKV
Видео кодек: H.264
Аудио кодек: DTS
Видео поток: AVC, 1280x720, 16:9, 4 788 Kbps, 23.976 fps, Progressive
Аудио поток: DTS, 1 510 Kbps, 48 KHz, 6 ch

MediaInfo

GeneralUnique ID : 183885120699976293024701370207070840127 (0x8A56FC6C5A59D1B6AFAA2CDF86FFE53F)Complete name : F:\Tarja.Turunen.And.Harus.In.Concert.Live.At.Sibelius.Hall.2011.720p.MBluRay.x264.mkvFormat : MatroskaFormat version : Version 2File size : 3.28 GiBDuration : 1h 14mnOverall bit rate : 6 294 KbpsEncoded date : UTC 2011-12-24 03:40:50Writing application : mkvmerge v5.1.0 ('And so it goes') built on Nov 28 2011 23:58:28Writing library : libebml v1.2.3 + libmatroska v1.3.0
VideoID : 1Format : AVCFormat/Info : Advanced Video CodecFormat profile : High@L4.1Format settings, CABAC : YesFormat settings, ReFrames : 5 framesCodec ID : V_MPEG4/ISO/AVCDuration : 1h 14mnBit rate : 4 788 KbpsWidth : 1 280 pixelsHeight : 720 pixelsDisplay aspect ratio : 16:9Frame rate : 23.976 fpsColor space : YUVChroma subsampling : 4:2:0Bit depth : 8 bitsScan type : ProgressiveBits/(Pixel*Frame) : 0.217Stream size : 2.43 GiB (74%)Writing library : x264 core 120 r2120 0c7dab9Encoding settings : cabac=1 / ref=5 / deblock=1:0:0 / analyse=0x3:0x133 / me=umh / subme=7 / psy=1 / psy_rd=1.00:0.00 / mixed_ref=1 / me_range=16 / chroma_me=1 / trellis=1 / 8x8dct=1 / cqm=0 / deadzone=21,11 / fast_pskip=0 / chroma_qp_offset=-2 / threads=18 / sliced_threads=0 / nr=0 / decimate=1 / interlaced=0 / bluray_compat=0 / constrained_intra=0 / bframes=3 / b_pyramid=2 / b_adapt=1 / b_bias=0 / direct=1 / weightb=1 / open_gop=0 / weightp=2 / keyint=250 / keyint_min=23 / scenecut=40 / intra_refresh=0 / rc_lookahead=40 / rc=2pass / mbtree=1 / bitrate=4788 / ratetol=1.0 / qcomp=0.60 / qpmin=10 / qpmax=51 / qpstep=4 / cplxblur=20.0 / qblur=0.5 / ip_ratio=1.40 / aq=1:1.00Default : YesForced : No
AudioID : 2Format : DTSFormat/Info : Digital Theater SystemsCodec ID : A_DTSDuration : 1h 14mnBit rate mode : ConstantBit rate : 1 510 KbpsChannel(s) : 6 channelsChannel positions : Front: L C R, Side: L R, LFESampling rate : 48.0 KHzBit depth : 24 bitsCompression mode : LossyStream size : 805 MiB (24%)Default : YesForced : No



Показать сообщения:    

Текущее время: 04-Дек 23:19

Часовой пояс: UTC + 3


Вы не можете начинать темы
Вы не можете отвечать на сообщения
Вы не можете редактировать свои сообщения
Вы не можете удалять свои сообщения
Вы не можете голосовать в опросах
Вы не можете прикреплять файлы к сообщениям
Вы не можете скачивать файлы