Il Divo - Live in London [2011, Classical Crossover, Pop, BDRip (720p)]


 

[Цитировать]

Il Divo - Live in London
Год выпуска: 2011
Лейбл: Sony Music
Страна-производитель: UK
Жанр: Classical Crossover, Pop
Продолжительность: 01:36:02
Режиссер/Хореограф: Брайан Бурк (Brian Burke), Саймон Арчер (Simon Archer), Ник Викэм (Nick Wickham)
Исполнители: Дэвид Миллер (David Miller), Себастьян Изамбар (Sebastien Izambard), Урс Бюлер (Urs Buhler), Карлос Марин (Carlos Marin)
Треклист:
01. Come What May (Te Amare)
02. Dov'e L'amore
03. Adagio
04. Nella Fantasia
05. La Vida Sin Amor
06. Everytime I Look At You
07. Passera
08. Unchained Melody (Senza Catene)
09. My Way (A Mi Menera)
10. Wicked Game (Melanconia)
11. Si Tu Me Amas
12. Mama
13. Hallelujah
14. Crying (Llorando)
15. Unbreak My Heart (Regresa A Mi)
16. Without You
17. Pour Que Tu M'aimes Encore
18. Somewhere
19. Time To Say Goodbye
20. End Credits - Senza Parole
Описание: Живое выступление Il Divo 2 августа 2011 года в великолепном лондонском Колизее, на домашней сцене Английской национальной оперы. 100-минутная программа с композициями из своего нового альбома «Wicked Game», а также с некоторыми из их признанного репертуара, в том числе «Dov'e L'amore», «Time to Say Goodbye» и «Unchained Melody».
Качество видео: BDRip
Формат/Контейнер: MKV
Видео кодек: H.264
Аудио кодек: AC3
Видео поток: MPEG-4 AVC, 6069 Кбит/сек, 1280 x 544 (2.35), 29.970 fps
Аудио поток: AC-3, 448 Кбит/сек, 6 каналов, 48.0 КГц
Cемпл: http://multi-up.com/609617

MediaInfo

General
Unique ID : 191485365079669869449179240339153265603 (0x900EBD66EEE57524AC719591692AA3C3)
Complete name : Il.Divo-Live.in.London.2011.x264.BDRip(720p)-Valegorov.mkv
Format : Matroska
File size : 4.37 GiB
Duration : 1h 36mn
Overall bit rate : 6 516 Kbps
Movie name : Il Divo 2011 Live in London [ve]
Encoded date : UTC 2011-12-10 07:29:38
Writing application : mkvmerge v2.1.0 ('Another Place To Fall') built on Aug 19 2007 13:40:07
Writing library : libebml v0.7.7 + libmatroska v0.8.1
Video
ID : 1
Format : AVC
Format/Info : Advanced Video Codec
Format profile : Main@L4.1
Format settings, CABAC : Yes
Format settings, ReFrames : 7 frames
Codec ID : V_MPEG4/ISO/AVC
Duration : 1h 36mn
Bit rate : 6 069 Kbps
Width : 1 280 pixels
Height : 544 pixels
Display aspect ratio : 2.35:1
Frame rate : 29.970 fps
Color space : YUV
Chroma subsampling : 4:2:0
Bit depth : 8 bits
Scan type : Progressive
Bits/(Pixel*Frame) : 0.291
Stream size : 3.98 GiB (91%)
Title : Il Divo 2011 Live in London [ve]
Writing library : x264 core 104 r1713 c276662
Encoding settings : cabac=1 / ref=7 / deblock=1:-3:-3 / analyse=0x1:0x111 / me=umh / subme=10 / psy=1 / psy_rd=1.20:0.30 / mixed_ref=1 / me_range=64 / chroma_me=1 / trellis=2 / 8x8dct=0 / cqm=0 / deadzone=21,11 / fast_pskip=0 / chroma_qp_offset=-2 / threads=3 / sliced_threads=0 / nr=0 / decimate=1 / interlaced=0 / constrained_intra=0 / bframes=3 / b_pyramid=2 / b_adapt=2 / b_bias=0 / direct=2 / weightb=1 / open_gop=0 / weightp=2 / keyint=250 / keyint_min=25 / scenecut=40 / intra_refresh=0 / rc_lookahead=40 / rc=2pass / mbtree=0 / bitrate=6069 / ratetol=1.0 / qcomp=0.60 / qpmin=10 / qpmax=51 / qpstep=4 / cplxblur=20.0 / qblur=0.5 / vbv_maxrate=40000 / vbv_bufsize=10000 / ip_ratio=1.40 / pb_ratio=1.30 / aq=1:1.20 / nal_hrd=none
Language : English
Audio
ID : 2
Format : AC-3
Format/Info : Audio Coding 3
Mode extension : CM (complete main)
Codec ID : A_AC3
Duration : 1h 36mn
Bit rate mode : Constant
Bit rate : 448 Kbps
Channel(s) : 6 channels
Channel positions : Front: L C R, Side: L R, LFE
Sampling rate : 48.0 KHz
Bit depth : 16 bits
Compression mode : Lossy
Stream size : 308 MiB (7%)
Language : English

Скриншоты




Показать сообщения:    

Текущее время: 03-Дек 12:34

Часовой пояс: UTC + 3


Вы не можете начинать темы
Вы не можете отвечать на сообщения
Вы не можете редактировать свои сообщения
Вы не можете удалять свои сообщения
Вы не можете голосовать в опросах
Вы не можете прикреплять файлы к сообщениям
Вы не можете скачивать файлы