Andrea Bocelli Concerto - One Night in Central Park [2011, Opera, Vocal, Classical, BDRip 720p]


 

[Цитировать]

Andrea Bocelli Concerto - One Night in Central Park
Жанр: Opera, Vocal, Classical
Продолжительность: 2 ч. 5 м.
Год выпуска: 2011г.
Исполнители: Andrea Bocelli, Celine Dion, Tony Bennett, Chris Botti, David Foster, Ana Maria Martinez, Pretty Yende, Nicola Benedetti, Bryn Terfel, Andrea Griminelli, New York Philharmonic Orchestra
Описание: Концерт знаменитого тенора, в Центральном парке Нью-Йорка 15-го сентября 2011-го года.
На концерте итальянский тенор Андреа Бочелли исполнил самые разнообразные песни из своего репертуара: от классических оперных арий до джазовых хитов.
В концерте приняли участие такие звезды как Селин Дион (ее голос можно услышать в их ставшем классическим дуэте с Бочелли “The Prayer”) и Тони Беннетт (с ним Бочелли исполняет легендарную “New York, New York” из одноименного фильма Мартина Скорсезе). Также на концерте в Центральном парке с Андреа Бочелли выступили известные в мире джаза и классики музыканты и оперные исполнители.
Качество: BDRip
Контейнер: MKV
Видео кодек: V_MPEG4/ISO/AVC
Аудио кодек: DTS, AC3
Видео: 1280x720 16:9 5549 Kbps; AVC; 29,970 fps; 0.215 bpp
Аудио #1: Italian DTS / 5.1 / 48 kHz / 1618 kbps / 1510 kbps /16-bit
Аудио #2: Italian AC-3 / 5.1 / 48 kHz / 448 kbps /16-bit

Трэклист

1. Overture - La forza del destino
2. La donna e mobile (from Rigoletto) - Andrea Bocelli, New York Philharmonic Orchestra
3. Di quella pira (da II Trovatore) - Andrea Bocelli, New York Philharmonic Orchestra
4. "Va, Tosca" (Te Deum) - Bryn Terfel, New York Philharmonic Orchestra, Alan Gilbert
5. Ave Maria - Central Park Version
6. Vicino A Te S'Acqueta - Andrea Chenier
7. Au Fond Du Temple Saint Les Pecheurs de perles - Andrea Bocelli, New York Philharmonic Orchestra, Alan Gilbert
8. Intermezzo - Manon Lescaut
9. "O Soave Fanciulla" - La Boheme
10. "Libiamo Ne'lieti calici (Brindisi) - La Traviata
11. Overture Candide - New York Philharmonic Orchestra, Alan Gilbert
12. Home On The Range - Bryn Terfel, New York Philharmonic Orchestra, Alan Gilbert
13. En Aranjuez Con Tu Amor - Concierto de Aranjuez
14. Funiculi Funicula - Andrea Bocelli, New York Philharmonic Orchestra, Alan Gilbert
15. The Tale of Tsar Saltan: The Flight of the Bumblebee - Andrea Griminelli, New York Philharmonic Orchestra, Alan Gilbert
16. O Sole Mio - Andrea Bocelli, New York Philharmonic Orchestra, Alan Gilbert
17. Amarcord - New York Philharmonic Orchestra, Alan Gilbert
18. Your Love (Once Upon A Time In The West) - Andrea Bocelli, New York Philharmonic Orchestra, Alan Gilbert
19. More (Ti Guardero Nel Cuore) - Andrea Bocelli, David Foster
20. Nel Blu Dipinto Di Blu (Volare) - Andrea Bocelli, David Foster
21. The Prayer - Andrea Bocelli, David Foster
22. New York New York - Andrea Bocelli, New York Philharmonic Orchestra, Alan Gilbert
23. Amazing Grace - Andrea Bocelli, New York Philharmonic Orchestra, Alan Gilbert
24. Time To Say Goodbye (Con te partiro) - Andrea Bocelli, New York Philharmonic Orchestra, Alan Gilbert
25. "Nessun dorma" - Turandot

Скриншоты

MediaInfo

Общее
Уникальный идентификатор         : 229502500557614621099972468671265668734 (0xACA892E572233CE09A751A775DC87E7E)
Полное имя                       : E:\Andrea Bocelli Concerto - One Night in Central Park 2011г. 720р.mkv
Формат                           : Matroska
Версия формата                   : Version 2
Размер файла                     : 7,17 Гбайт
Продолжительность                : 2 ч. 5 м.
Режим общего битрейта            : Переменный
Общий поток                      : 8180 Кбит/сек
Дата кодирования                 : UTC 2011-12-04 17:49:31
Программа кодирования            : mkvmerge v5.0.1 ('Es ist Sommer') built on Oct  9 2011 11:55:43
Библиотека кодирования           : libebml v1.2.2 + libmatroska v1.3.0
Видео
Идентификатор                    : 1
Формат                           : AVC
Формат/Информация                : Advanced Video Codec
Профиль формата                  : High@L3.1
Параметр CABAC формата           : Да
Параметр ReFrames формата        : 4 кадра
Режим смешивания                 : Header stripping
Идентификатор кодека             : V_MPEG4/ISO/AVC
Продолжительность                : 2 ч. 5 м.
Битрейт                          : 5951 Кбит/сек
Номинальный битрейт              : 5549 Кбит/сек
Ширина                           : 1280 пикселей
Высота                           : 720 пикселей
Соотношение сторон               : 16:9
Частота кадров                   : 29,970 кадров/сек
Цветовое пространство            : YUV
Субдискретизация насыщенности    : 4:2:0
Битовая глубина                  : 8 бит
Тип развёртки                    : Прогрессивная
Бит/(Пиксели*Кадры)              : 0.215
Размер потока                    : 5,21 Гбайт (73%)
Библиотека кодирования           : x264 core 116 r2074 2641b9e
Настройки программы              : cabac=1 / ref=4 / deblock=1:0:0 / analyse=0x3:0x113 / me=hex / subme=7 / psy=1 / psy_rd=1.00:0.00 / mixed_ref=1 / me_range=16 / chroma_me=1 / trellis=1 / 8x8dct=1 / cqm=0 / deadzone=21,11 / fast_pskip=1 / chroma_qp_offset=-2 / threads=6 / sliced_threads=0 / nr=0 / decimate=1 / interlaced=0 / bluray_compat=0 / constrained_intra=0 / bframes=3 / b_pyramid=2 / b_adapt=1 / b_bias=0 / direct=1 / weightb=1 / open_gop=0 / weightp=2 / keyint=250 / keyint_min=25 / scenecut=40 / intra_refresh=0 / rc_lookahead=40 / rc=2pass / mbtree=1 / bitrate=5549 / ratetol=1.0 / qcomp=0.60 / qpmin=0 / qpmax=69 / qpstep=4 / cplxblur=20.0 / qblur=0.5 / ip_ratio=1.40 / aq=1:1.00
Язык                             : English
Default                          : Да
Forced                           : Нет
Аудио #1
Идентификатор                    : 2
Формат                           : DTS
Формат/Информация                : Digital Theater Systems
Профиль формата                  : MA / Core
Режим смешивания                 : Header stripping
Идентификатор кодека             : A_DTS
Продолжительность                : 2 ч. 5 м.
Вид битрейта                     : Переменный
Битрейт                          : 1618 Кбит/сек / 1510 Кбит/сек
Каналы                           : 6 каналов
Расположение каналов             : Front: L C R, Side: L R, LFE
Частота                          : 48,0 КГц
Битовая глубина                  : 16 бит
Метод сжатия                     : Без потерь / Lossy
Задержка видео                   : 166 мс.
Заголовок                        : DTS 5.1 48 kHz 1618  kbps  / 1510  kbps 16-bit
Язык                             : Italian
Default                          : Да
Forced                           : Нет
Аудио #2
Идентификатор                    : 3
Формат                           : AC-3
Формат/Информация                : Audio Coding 3
Расширение режима                : CM (complete main)
Режим смешивания                 : Header stripping
Идентификатор кодека             : A_AC3
Продолжительность                : 2 ч. 5 м.
Вид битрейта                     : Постоянный
Битрейт                          : 448 Кбит/сек
Каналы                           : 6 каналов
Расположение каналов             : Front: L C R, Side: L R, LFE
Частота                          : 48,0 КГц
Битовая глубина                  : 16 бит
Метод сжатия                     : С потерями
Задержка видео                   : 166 мс.
Размер потока                    : 402 Мбайт (5%)
Заголовок                        : AC3 5.1 48 kHz 448  kbps 16-bit
Язык                             : Italian
Default                          : Нет
Forced                           : Нет
Меню
00:01:24.000                     : :OVERTURE - Verdi / La forza del destino
00:09:21.894                     : :LA DONNA E MOBILE - Verdi / Rigoletto
00:11:52.545                     : :DI QUELLA PIRA - Verdi / Il Trovatore
00:15:22.388                     : :VA, TOSCA! (Te Deum) - Puccini / Tosca performed by Bryn Terfel
00:19:57.362                     : :AVE MARIA "Central Park Version"
00:24:58.964                     : :VICINO A TE S' ACQUETA - Giordano / Andrea Chenier duet with Ana Maria Martinez
00:33:40.985                     : :AU FOND DU TEMPLE SAINT - Bizet / Les Pecheurs de perles duet with Bryn Terfel
00:39:46.117                     : :INTERMEZZO - Puccini / Manon Lescaut
00:45:22.686                     : :O SOAVE FANCIULLA - Puccini / La Boheme duet with Pretty Yende
00:49:35.772                     : :LIBIAMO NE' LIETI CALICI - Verdi / La Traviata with P.Yende, B.Terfel, A.M.Martinez
00:53:30.282                     : :OVERTURE - Bernstein / Candide
00:58:45.622                     : :HOME ON THE RANGE performed by Bryn Terfel
01:04:19.455                     : :EN ARANJUEZ CON TU AMOR - Concierto de Aranjuez with Nicola Benedetti on violin
01:08:53.395                     : :FUNICULI FUNICULA with Andrea Griminelli on flute
01:11:42.698                     : :THE FLIGHT OF THE BUMBLEBEE - The Tale of Tsar Saltan performed by Andrea Griminelli on flute
01:13:30.906                     : :'O SOLE MIO
01:17:01.583                     : :AMARCORD
01:22:09.324                     : :YOUR LOVE (Once upon a time in the West)
01:27:53.371                     : :MORE (Ti guardero nel cuore) with Chris Botti on trumpet, David Foster on piano
01:32:07.456                     : :NEL BLU, DIPINTO DI BLU (Volare) with David Foster on piano
01:37:26.707                     : :THE PRAYER duet with Celine Dion, David Foster on piano
01:42:33.447                     : :NEW YORK, NEW YORK duet with Tony Bennett
01:46:16.303                     : :AMAZING GRACE
01:51:41.528                     : :TIME TO SAY GOODBYE ( Con te partiro ) duet with Ana Maria Martinez
01:57:16.963                     : :NESSUN DORMA - Puccini / Turandot



Показать сообщения:    

Текущее время: 03-Дек 12:35

Часовой пояс: UTC + 3


Вы не можете начинать темы
Вы не можете отвечать на сообщения
Вы не можете редактировать свои сообщения
Вы не можете удалять свои сообщения
Вы не можете голосовать в опросах
Вы не можете прикреплять файлы к сообщениям
Вы не можете скачивать файлы