Gustav Mahler: Symphony No. 9 / Густав Малер: Симфония No. 9 (Аббадо / Abbado, Оркестр Люцернского фестиваля / Lucerne Festival Orchestra) [2011, Classical, BDRip, 720p, DTS, AC3]


 

[Цитировать]

Gustav Mahler: Symphony No. 9 / Густав Малер: Симфония No. 9
Год выпуска: 2011
Лейбл: Accentus
Страна-производитель: Германия
Жанр: Classical
Продолжительность: 01:35:12
Режиссер/Хореограф: Михаэль Байер
Дирижер: Клаудио Аббадо
Исполнители: Оркестр Люцернского фестиваля / Lucerne Festival Orchestra
Треклист:
1. Andante comodo.
2. Im Tempo eines gemächlichen Ländlers. Etwas täppisch und sehr derb.
3. Rondo-Burleske. Allegro assai. Sehr trotzig.
4. Adagio. Sehr langsam.
Описание: Клаудио Аббадо и его избранные музыканты Оркестра Люцернского фестиваля вывели свой получивший признание малеровский цикл на новый уровень этой аудиовизуальной записью наиболее сложной и захватывающей, насыщенной, пронзительной Девятой симфонии.
Аббадо отдает всю знаменитую ясность своего видения и жизненный опыт этой противоречивой музыке – отчасти прощальной, отчасти жизнеутверждающей, – и его “оркестр солистов”, включая некоторых ведущих профессиональных музыкантов нашего времени, торжествует в открытости изложения и виртуозности последней законченной симфонии Малера.
“Исполнение... изумительной глубины и утонченности” Дейли Телеграф.
“Клаудио Аббадо: интерпретация Малера, светлая, плавная и поразительная своей оркестровой открытостью. Преимущество его интерпретаций в ясности и одухотворенности: он подчинил себе тишину. С Аббадо и Люцернским оркестром можно ощутить себя вне времени.” Лё Фигаро
“Слушатель теряет дар речи от захватывающей глубины и совершенства достигнутого симбиоза художественной мудрости и и неподдельной радости при создании музыки высочайшего уровня.” Франкфуртер Альгемайне Цайтунг
(Исходник BluRay) (Sample)
Качество видео: BDRip by vanuuatuu
Формат/Контейнер: MKV
Видео кодек: H.264
Аудио кодек: DTS, AC3
Видео поток: 1280х720, 7193 kbps, 29.841 fps, 16:9
Аудио поток 1: DTS, 755 Kbps, 48.0 KHz, 6 ch (Front: L C R, Side: L R, LFE)
Аудио поток 2: AC3, 448 Kbps, 48.0 KHz, 6 ch (Front: L C R, Side: L R, LFE)

Скриншоты





MI

General
Complete name : F:\MAHLER_9.BDRemux\Gustav.Mahler.720p.dts.ac3.mkv
Format : Matroska
File size : 5.59 GiB
Duration : 1h 35mn
Overall bit rate : 8 406 Kbps
Encoded date : UTC 2011-09-17 11:18:52
Writing application : mkvmerge v4.7.0 ('Just Like You Imagined') сборка от Apr 21 2011 01:13:14
Writing library : libebml v1.2.0 + libmatroska v1.1.0
Video
ID : 1
Format : AVC
Format/Info : Advanced Video Codec
Format profile : High@L3.1
Format settings, CABAC : Yes
Format settings, ReFrames : 3 frames
Muxing mode : Container profile=Unknown@3.1
Codec ID : V_MPEG4/ISO/AVC
Duration : 1h 35mn
Bit rate : 7 193 Kbps
Width : 1 280 pixels
Height : 720 pixels
Display aspect ratio : 16:9
Frame rate mode : Variable
Frame rate : 29.841 fps
Color space : YUV
Chroma subsampling : 4:2:0
Bit depth : 8 bits
Scan type : Progressive
Bits/(Pixel*Frame) : 0.262
Stream size : 4.68 GiB (84%)
Writing library : x264 core 112
Encoding settings : cabac=1 / ref=4 / deblock=1:-3:-3 / analyse=0x3:0x113 / me=tesa / subme=7 / psy=1 / psy_rd=1.00:0.00 / mixed_ref=1 / me_range=24 / chroma_me=1 / trellis=2 / 8x8dct=1 / cqm=0 / deadzone=21,11 / fast_pskip=1 / chroma_qp_offset=-2 / threads=3 / sliced_threads=0 / nr=0 / decimate=1 / interlaced=0 / constrained_intra=0 / bframes=12 / b_pyramid=1 / b_adapt=2 / b_bias=0 / direct=3 / weightb=1 / open_gop=0 / weightp=2 / keyint=300 / keyint_min=29 / scenecut=40 / intra_refresh=0 / rc_lookahead=50 / rc=2pass / mbtree=1 / bitrate=7193 / ratetol=1.0 / qcomp=0.60 / qpmin=3 / qpmax=51 / qpstep=4 / cplxblur=20.0 / qblur=0.5 / ip_ratio=1.40 / aq=1:1.00
Language : English
Color primaries : BT.709-5, BT.1361, IEC 61966-2-4, SMPTE RP177
Transfer characteristics : BT.709-5, BT.1361
Matrix coefficients : BT.709-5, BT.1361, IEC 61966-2-4 709, SMPTE RP177
Audio #1
ID : 2
Format : DTS
Format/Info : Digital Theater Systems
Muxing mode : Header stripping
Codec ID : A_DTS
Duration : 1h 35mn
Bit rate mode : Constant
Bit rate : 755 Kbps
Channel(s) : 6 channels
Channel positions : Front: L C R, Side: L R, LFE
Sampling rate : 48.0 KHz
Bit depth : 16 bits
Stream size : 514 MiB (9%)
Title : DTS (755 Kbps) from DTS HD MA (1812 kbps)
Audio #2
ID : 3
Format : AC-3
Format/Info : Audio Coding 3
Mode extension : CM (complete main)
Muxing mode : Header stripping
Codec ID : A_AC3
Duration : 1h 35mn
Bit rate mode : Constant
Bit rate : 448 Kbps
Channel(s) : 2 channels
Channel positions : Front: L R
Sampling rate : 48.0 KHz
Bit depth : 16 bits
Stream size : 305 MiB (5%)
Title : AC3 (2 ch 448 kbps) from FLAC (2 ch 1 344 Kbps)



Показать сообщения:    

Текущее время: 11-Дек 05:21

Часовой пояс: UTC + 3


Вы не можете начинать темы
Вы не можете отвечать на сообщения
Вы не можете редактировать свои сообщения
Вы не можете удалять свои сообщения
Вы не можете голосовать в опросах
Вы не можете прикреплять файлы к сообщениям
Вы не можете скачивать файлы