Gustav Mahler - Symphonie Nr.9 D-Dur (Staatskapelle Berlin - Daniel Barenboim) \\ Густав Малер - Симфония №9 (Даниель Баренбойм) [2010, Symphony, DVD9]


 

[Цитировать]

Gustav Mahler - Symphonie Nr.9
Staatskapelle Berlin - Daniel Barenboim
-
-
-
-
- Год выпуска: 2010
Лейбл: Unitel Classica
Страна-производитель: Austria
Жанр: Symphony
Продолжительность: 79' + bonus 22'
Режиссер/Хореограф: A.Morell
Исполнители: Staatskapelle Berlin - Daniel Barenboim
Треклист:
Gustav Mahler - Symphony No.9
I. Andnate comodo
II. Im tempo eines gemächlichen Ländlers
III. Rondo Burleske
IV. Adagio
BONUS
The Mahler Project (D.Barenboim and P.Boulez working on the symphonies of Gustav Mahler)
Качество видео: DVD9
Формат/Контейнер: DVDVideo
Видео кодек: MPEG2
Аудио кодек: AC3
Видео поток: NTSC, 720x480, 29,9 fps
Аудио поток: PCM 2 ch., DTS 6 ch.

Mediainfo

ОбщееПолное имя : D:\DVD\Mahler_9_Barenboim_dvd\VIDEO_TS\VIDEO_TS.BUPФормат : DVD VideoПрофиль формата : MenuРазмер файла : 20,0 Кбайт
ВидеоИдентификатор : 224 (0xE0)Формат : MPEG VideoВерсия формата : Version 2Вид битрейта : ПеременныйШирина : 720 пикс.Высота : 480 пикс.Соотношение сторон : 16:9Частота кадров : 29,970 кадр/секСтандарт вещания : NTSCМетод сжатия : С потерями
АудиоФормат : AC-3Формат/Информация : Audio Coding 3Каналы : 2 каналаЧастота : 48,0 КГцМетод сжатия : С потерями
ТекстФормат : RLEФормат/Информация : Run-length encodingБитовая глубина : 2 бит
ОбщееПолное имя : D:\DVD\Mahler_9_Barenboim_dvd\VIDEO_TS\VIDEO_TS.IFOФормат : DVD VideoПрофиль формата : MenuРазмер файла : 20,0 Кбайт
ВидеоИдентификатор : 224 (0xE0)Формат : MPEG VideoВерсия формата : Version 2Вид битрейта : ПеременныйШирина : 720 пикс.Высота : 480 пикс.Соотношение сторон : 16:9Частота кадров : 29,970 кадр/секСтандарт вещания : NTSCМетод сжатия : С потерями
АудиоФормат : AC-3Формат/Информация : Audio Coding 3Каналы : 2 каналаЧастота : 48,0 КГцМетод сжатия : С потерями
ТекстФормат : RLEФормат/Информация : Run-length encodingБитовая глубина : 2 бит
ОбщееПолное имя : D:\DVD\Mahler_9_Barenboim_dvd\VIDEO_TS\VIDEO_TS.VOBФормат : MPEG-PSРазмер файла : 191 МбайтПродолжительность : 2 м. 0 с.Общий поток : 13,4 Мбит/сек
ВидеоИдентификатор : 224 (0xE0)Формат : MPEG VideoВерсия формата : Version 2Профиль формата : Main@MainПараметр BVOP формата : ДаПараметр матрицы формата : По умолчаниюПараметры GOP формата : M=2, N=6Продолжительность : 2 м. 0 с.Вид битрейта : ПеременныйБитрейт : 12,9 Мбит/секНоминальный битрейт : 9800 Кбит/секШирина : 720 пикс.Высота : 480 пикс.Соотношение сторон : 16:9Частота кадров : 29,970 кадр/секСтандарт вещания : NTSCЦветовое пространство : YUVПодвыборка цветности : 4:2:0Битовая глубина : 8 битТип развёртки : ЧересстрочнаяПорядок развёртки : Верхнее поле первоеМетод сжатия : С потерямиБит/(Пиксели*Кадры) : 1.246Размер потока : 185 Мбайт (97%)
АудиоИдентификатор : 189 (0xBD)-128 (0x80)Формат : AC-3Формат/Информация : Audio Coding 3Расширение режима : CM (complete main)Режим смешивания : DVD-VideoПродолжительность : 2 м. 0 с.Вид битрейта : ПостоянныйБитрейт : 192 Кбит/секКаналы : 2 каналаРасположение каналов : Front: L RЧастота : 48,0 КГцБитовая глубина : 16 битМетод сжатия : С потерямиРазмер потока : 2,75 Мбайт (1%)
Текст #1Идентификатор : 189 (0xBD)-32 (0x20)Формат : RLEФормат/Информация : Run-length encodingРежим смешивания : DVD-Video
Текст #2Идентификатор : 189 (0xBD)-33 (0x21)Формат : RLEФормат/Информация : Run-length encodingРежим смешивания : DVD-Video
Меню
ОбщееПолное имя : D:\DVD\Mahler_9_Barenboim_dvd\VIDEO_TS\VTS_01_0.BUPФормат : DVD VideoПрофиль формата : ProgramРазмер файла : 12,0 КбайтПродолжительность : 10 с.Общий поток : 9245 бит/сек
ВидеоИдентификатор : 224 (0xE0)Формат : MPEG VideoВерсия формата : Version 2Продолжительность : 10 с.Вид битрейта : ПеременныйШирина : 720 пикс.Высота : 480 пикс.Соотношение сторон : 16:9Частота кадров : 29,970 кадр/секСтандарт вещания : NTSCМетод сжатия : С потерями
Меню #1Продолжительность : 10 с.00:00:00.000 : Chapter 100:00:10.233 : Chapter 2
Меню #2Продолжительность : 10 с.00:00:00.000 : Chapter 100:00:10.033 : Chapter 2
Меню #3Продолжительность : 8 с. 433 мс.00:00:00.000 : Chapter 100:00:08.033 : Chapter 2
ОбщееПолное имя : D:\DVD\Mahler_9_Barenboim_dvd\VIDEO_TS\VTS_01_0.IFOФормат : DVD VideoПрофиль формата : ProgramРазмер файла : 12,0 КбайтПродолжительность : 10 с.Общий поток : 9245 бит/сек
ВидеоИдентификатор : 224 (0xE0)Формат : MPEG VideoВерсия формата : Version 2Продолжительность : 10 с.Вид битрейта : ПеременныйШирина : 720 пикс.Высота : 480 пикс.Соотношение сторон : 16:9Частота кадров : 29,970 кадр/секСтандарт вещания : NTSCМетод сжатия : С потерями
Меню #1Продолжительность : 10 с.00:00:00.000 : Chapter 100:00:10.233 : Chapter 2
Меню #2Продолжительность : 10 с.00:00:00.000 : Chapter 100:00:10.033 : Chapter 2
Меню #3Продолжительность : 8 с. 433 мс.00:00:00.000 : Chapter 100:00:08.033 : Chapter 2
ОбщееПолное имя : D:\DVD\Mahler_9_Barenboim_dvd\VIDEO_TS\VTS_01_1.VOBФормат : MPEG-PSРазмер файла : 5,99 МбайтПродолжительность : 10 с.Общий поток : 4902 Кбит/сек
ВидеоИдентификатор : 224 (0xE0)Формат : MPEG VideoВерсия формата : Version 2Профиль формата : Main@MainПараметр BVOP формата : ДаПараметр матрицы формата : По умолчаниюПараметры GOP формата : M=2, N=6Продолжительность : 10 с.Вид битрейта : ПеременныйБитрейт : 4805 Кбит/секНоминальный битрейт : 9800 Кбит/секШирина : 720 пикс.Высота : 480 пикс.Соотношение сторон : 16:9Частота кадров : 29,970 кадр/секСтандарт вещания : NTSCЦветовое пространство : YUVПодвыборка цветности : 4:2:0Битовая глубина : 8 битТип развёртки : ЧересстрочнаяПорядок развёртки : Верхнее поле первоеМетод сжатия : С потерямиБит/(Пиксели*Кадры) : 0.464Размер потока : 5,87 Мбайт (98%)
Меню
ОбщееПолное имя : D:\DVD\Mahler_9_Barenboim_dvd\VIDEO_TS\VTS_02_0.BUPФормат : DVD VideoПрофиль формата : ProgramРазмер файла : 60,0 КбайтПродолжительность : 1 ч. 18 м.Общий поток : 104 бит/сек
ВидеоИдентификатор : 224 (0xE0)Формат : MPEG VideoВерсия формата : Version 2Продолжительность : 1 ч. 18 м.Вид битрейта : ПеременныйШирина : 720 пикс.Высота : 480 пикс.Соотношение сторон : 16:9Частота кадров : 29,970 кадр/секСтандарт вещания : NTSCМетод сжатия : С потерями
Аудио #1Идентификатор : 0 (0x0)Формат : PCMПродолжительность : 1 ч. 18 м.Каналы : 2 каналаЧастота : 48,0 КГц
Аудио #2Идентификатор : 137 (0x89)Формат : DTSФормат/Информация : Digital Theater SystemsПродолжительность : 1 ч. 18 м.Каналы : 6 каналовЧастота : 48,0 КГцМетод сжатия : С потерями
МенюПродолжительность : 1 ч. 18 м.00:00:00.000 : Chapter 100:01:31.866 : Chapter 200:26:26.066 : Chapter 300:40:43.199 : Chapter 400:53:36.932 : Chapter 501:15:40.898 : Chapter 601:18:14.998 : Chapter 701:18:24.964 : Chapter 801:18:34.997 : Chapter 9List (Audio) : 0 / 1
ОбщееПолное имя : D:\DVD\Mahler_9_Barenboim_dvd\VIDEO_TS\VTS_02_0.IFOФормат : DVD VideoПрофиль формата : ProgramРазмер файла : 60,0 КбайтПродолжительность : 1 ч. 18 м.Общий поток : 104 бит/сек
ВидеоИдентификатор : 224 (0xE0)Формат : MPEG VideoВерсия формата : Version 2Продолжительность : 1 ч. 18 м.Вид битрейта : ПеременныйШирина : 720 пикс.Высота : 480 пикс.Соотношение сторон : 16:9Частота кадров : 29,970 кадр/секСтандарт вещания : NTSCМетод сжатия : С потерями
Аудио #1Идентификатор : 0 (0x0)Формат : PCMПродолжительность : 1 ч. 18 м.Каналы : 2 каналаЧастота : 48,0 КГц
Аудио #2Идентификатор : 137 (0x89)Формат : DTSФормат/Информация : Digital Theater SystemsПродолжительность : 1 ч. 18 м.Каналы : 6 каналовЧастота : 48,0 КГцМетод сжатия : С потерями
МенюПродолжительность : 1 ч. 18 м.00:00:00.000 : Chapter 100:01:31.866 : Chapter 200:26:26.066 : Chapter 300:40:43.199 : Chapter 400:53:36.932 : Chapter 501:15:40.898 : Chapter 601:18:14.998 : Chapter 701:18:24.964 : Chapter 801:18:34.997 : Chapter 9List (Audio) : 0 / 1
ОбщееПолное имя : D:\DVD\Mahler_9_Barenboim_dvd\VIDEO_TS\VTS_02_0.VOBФормат : MPEG-PSРазмер файла : 170 КбайтПродолжительность : 33 мс.Общий поток : 42,2 Мбит/сек
ВидеоИдентификатор : 224 (0xE0)Формат : MPEG VideoВерсия формата : Version 2Профиль формата : Main@MainПараметр BVOP формата : НетПараметр матрицы формата : По умолчаниюПараметры GOP формата : N=1Продолжительность : 33 мс.Вид битрейта : ПостоянныйБитрейт : 8000 Кбит/секШирина : 720 пикс.Высота : 480 пикс.Соотношение сторон : 16:9Частота кадров : 29,970 кадр/секСтандарт вещания : NTSCЦветовое пространство : YUVПодвыборка цветности : 4:2:0Битовая глубина : 8 битТип развёртки : ПрогрессивнаяПорядок развёртки : Верхнее поле первоеМетод сжатия : С потерямиБит/(Пиксели*Кадры) : 0.772Размер потока : 32,2 Кбайт (19%)
Текст #1Идентификатор : 189 (0xBD)-32 (0x20)Формат : RLEФормат/Информация : Run-length encodingРежим смешивания : DVD-Video
Текст #2Идентификатор : 189 (0xBD)-33 (0x21)Формат : RLEФормат/Информация : Run-length encodingРежим смешивания : DVD-Video
Меню
ОбщееПолное имя : D:\DVD\Mahler_9_Barenboim_dvd\VIDEO_TS\VTS_02_1.VOBФормат : MPEG-PSРазмер файла : 1024 МбайтПродолжительность : 15 м.Общий поток : 9372 Кбит/сек
ВидеоИдентификатор : 224 (0xE0)Формат : MPEG VideoВерсия формата : Version 2Профиль формата : Main@MainПараметр BVOP формата : ДаПараметр матрицы формата : По умолчаниюПараметры GOP формата : M=3, N=15Продолжительность : 15 м.Вид битрейта : ПостоянныйБитрейт : 6895 Кбит/секНоминальный битрейт : 7500 Кбит/секШирина : 720 пикс.Высота : 480 пикс.Соотношение сторон : 2,35:1Частота кадров : 29,970 кадр/секСтандарт вещания : NTSCЦветовое пространство : YUVПодвыборка цветности : 4:2:0Битовая глубина : 8 битТип развёртки : ЧересстрочнаяПорядок развёртки : Верхнее поле первоеМетод сжатия : С потерямиБит/(Пиксели*Кадры) : 0.666Размер потока : 753 Мбайт (74%)
Аудио #1Идентификатор : 189 (0xBD)-137 (0x89)Формат : DTSФормат/Информация : Digital Theater SystemsРежим смешивания : DVD-VideoПродолжительность : 15 м.Вид битрейта : ПостоянныйБитрейт : 755 Кбит/секКаналы : 6 каналовРасположение каналов : Front: L C R, Side: L R, LFEЧастота : 48,0 КГцБитовая глубина : 24 битМетод сжатия : С потерямиРазмер потока : 82,4 Мбайт (8%)
Аудио #2Идентификатор : 189 (0xBD)-160 (0xA0)Формат : PCMПараметр Endianness формата : BigПараметр Sign формата : SignedРежим смешивания : DVD-VideoПродолжительность : 15 м.Вид битрейта : ПостоянныйБитрейт : 1536 Кбит/секКаналы : 2 каналаРасположение каналов : Front: L RЧастота : 48,0 КГцБитовая глубина : 16 битРазмер потока : 168 Мбайт (16%)
Меню
ОбщееПолное имя : D:\DVD\Mahler_9_Barenboim_dvd\VIDEO_TS\VTS_02_2.VOBФормат : MPEG-PSРазмер файла : 1024 МбайтПродолжительность : 15 м.Общий поток : 9387 Кбит/сек
ВидеоИдентификатор : 224 (0xE0)Формат : MPEG VideoВерсия формата : Version 2Профиль формата : Main@MainПараметр BVOP формата : ДаПараметр матрицы формата : По умолчаниюПараметры GOP формата : M=3, N=15Продолжительность : 15 м.Вид битрейта : ПостоянныйБитрейт : 6910 Кбит/секНоминальный битрейт : 7500 Кбит/секШирина : 720 пикс.Высота : 480 пикс.Соотношение сторон : 2,35:1Частота кадров : 29,970 кадр/секСтандарт вещания : NTSCЦветовое пространство : YUVПодвыборка цветности : 4:2:0Битовая глубина : 8 битТип развёртки : ЧересстрочнаяПорядок развёртки : Верхнее поле первоеМетод сжатия : С потерямиБит/(Пиксели*Кадры) : 0.667Размер потока : 754 Мбайт (74%)
Аудио #1Идентификатор : 189 (0xBD)-137 (0x89)Формат : DTSФормат/Информация : Digital Theater SystemsРежим смешивания : DVD-VideoПродолжительность : 15 м.Вид битрейта : ПостоянныйБитрейт : 755 Кбит/секКаналы : 6 каналовРасположение каналов : Front: L C R, Side: L R, LFEЧастота : 48,0 КГцБитовая глубина : 24 битМетод сжатия : С потерямиЗадержка видео : -241 мс.Размер потока : 82,3 Мбайт (8%)
Аудио #2Идентификатор : 189 (0xBD)-160 (0xA0)Формат : PCMПараметр Endianness формата : BigПараметр Sign формата : SignedРежим смешивания : DVD-VideoПродолжительность : 15 м.Вид битрейта : ПостоянныйБитрейт : 1536 Кбит/секКаналы : 2 каналаРасположение каналов : Front: L RЧастота : 48,0 КГцБитовая глубина : 16 битЗадержка видео : -269 мс.Размер потока : 168 Мбайт (16%)
Меню
ОбщееПолное имя : D:\DVD\Mahler_9_Barenboim_dvd\VIDEO_TS\VTS_02_3.VOBФормат : MPEG-PSРазмер файла : 1024 МбайтПродолжительность : 15 м.Общий поток : 9474 Кбит/сек
ВидеоИдентификатор : 224 (0xE0)Формат : MPEG VideoВерсия формата : Version 2Профиль формата : Main@MainПараметр BVOP формата : ДаПараметр матрицы формата : По умолчаниюПараметры GOP формата : M=3, N=15Продолжительность : 15 м.Вид битрейта : ПостоянныйБитрейт : 6995 Кбит/секНоминальный битрейт : 7500 Кбит/секШирина : 720 пикс.Высота : 480 пикс.Соотношение сторон : 2,35:1Частота кадров : 29,970 кадр/секСтандарт вещания : NTSCЦветовое пространство : YUVПодвыборка цветности : 4:2:0Битовая глубина : 8 битТип развёртки : ЧересстрочнаяПорядок развёртки : Верхнее поле первоеМетод сжатия : С потерямиБит/(Пиксели*Кадры) : 0.675Размер потока : 756 Мбайт (74%)
Аудио #1Идентификатор : 189 (0xBD)-137 (0x89)Формат : DTSФормат/Информация : Digital Theater SystemsРежим смешивания : DVD-VideoПродолжительность : 15 м.Вид битрейта : ПостоянныйБитрейт : 755 Кбит/секКаналы : 6 каналовРасположение каналов : Front: L C R, Side: L R, LFEЧастота : 48,0 КГцБитовая глубина : 24 битМетод сжатия : С потерямиЗадержка видео : -229 мс.Размер потока : 81,5 Мбайт (8%)
Аудио #2Идентификатор : 189 (0xBD)-160 (0xA0)Формат : PCMПараметр Endianness формата : BigПараметр Sign формата : SignedРежим смешивания : DVD-VideoПродолжительность : 15 м.Вид битрейта : ПостоянныйБитрейт : 1536 Кбит/секКаналы : 2 каналаРасположение каналов : Front: L RЧастота : 48,0 КГцБитовая глубина : 16 битЗадержка видео : -264 мс.Размер потока : 166 Мбайт (16%)
Меню
ОбщееПолное имя : D:\DVD\Mahler_9_Barenboim_dvd\VIDEO_TS\VTS_02_4.VOBФормат : MPEG-PSРазмер файла : 1024 МбайтПродолжительность : 15 м.Общий поток : 9374 Кбит/сек
ВидеоИдентификатор : 224 (0xE0)Формат : MPEG VideoВерсия формата : Version 2Профиль формата : Main@MainПараметр BVOP формата : ДаПараметр матрицы формата : По умолчаниюПродолжительность : 15 м.Вид битрейта : ПостоянныйБитрейт : 6897 Кбит/секНоминальный битрейт : 7500 Кбит/секШирина : 720 пикс.Высота : 480 пикс.Соотношение сторон : 2,35:1Частота кадров : 29,970 кадр/секСтандарт вещания : NTSCЦветовое пространство : YUVПодвыборка цветности : 4:2:0Битовая глубина : 8 битТип развёртки : ЧересстрочнаяПорядок развёртки : Верхнее поле первоеМетод сжатия : С потерямиБит/(Пиксели*Кадры) : 0.666Размер потока : 753 Мбайт (74%)
Аудио #1Идентификатор : 189 (0xBD)-137 (0x89)Формат : DTSФормат/Информация : Digital Theater SystemsРежим смешивания : DVD-VideoПродолжительность : 15 м.Вид битрейта : ПостоянныйБитрейт : 755 Кбит/секКаналы : 6 каналовРасположение каналов : Front: L C R, Side: L R, LFEЧастота : 48,0 КГцБитовая глубина : 24 битМетод сжатия : С потерямиЗадержка видео : -236 мс.Размер потока : 82,4 Мбайт (8%)
Аудио #2Идентификатор : 189 (0xBD)-160 (0xA0)Формат : PCMПараметр Endianness формата : BigПараметр Sign формата : SignedРежим смешивания : DVD-VideoПродолжительность : 15 м.Вид битрейта : ПостоянныйБитрейт : 1536 Кбит/секКаналы : 2 каналаРасположение каналов : Front: L RЧастота : 48,0 КГцБитовая глубина : 16 битЗадержка видео : -260 мс.Размер потока : 168 Мбайт (16%)
Меню
ОбщееПолное имя : D:\DVD\Mahler_9_Barenboim_dvd\VIDEO_TS\VTS_02_5.VOBФормат : MPEG-PSРазмер файла : 1023 МбайтПродолжительность : 15 м.Общий поток : 9103 Кбит/сек
ВидеоИдентификатор : 224 (0xE0)Формат : MPEG VideoВерсия формата : Version 2Профиль формата : Main@MainПараметр BVOP формата : ДаПараметр матрицы формата : По умолчаниюПараметры GOP формата : M=3, N=15Продолжительность : 15 м.Вид битрейта : ПостоянныйБитрейт : 6632 Кбит/секНоминальный битрейт : 7500 Кбит/секШирина : 720 пикс.Высота : 480 пикс.Соотношение сторон : 2,35:1Частота кадров : 29,970 кадр/секСтандарт вещания : NTSCЦветовое пространство : YUVПодвыборка цветности : 4:2:0Битовая глубина : 8 битТип развёртки : ЧересстрочнаяПорядок развёртки : Верхнее поле первоеМетод сжатия : С потерямиБит/(Пиксели*Кадры) : 0.640Размер потока : 745 Мбайт (73%)
Аудио #1Идентификатор : 189 (0xBD)-137 (0x89)Формат : DTSФормат/Информация : Digital Theater SystemsРежим смешивания : DVD-VideoПродолжительность : 15 м.Вид битрейта : ПостоянныйБитрейт : 755 Кбит/секКаналы : 6 каналовРасположение каналов : Front: L C R, Side: L R, LFEЧастота : 48,0 КГцБитовая глубина : 24 битМетод сжатия : С потерямиЗадержка видео : -233 мс.Размер потока : 84,8 Мбайт (8%)
Аудио #2Идентификатор : 189 (0xBD)-160 (0xA0)Формат : PCMПараметр Endianness формата : BigПараметр Sign формата : SignedРежим смешивания : DVD-VideoПродолжительность : 15 м.Вид битрейта : ПостоянныйБитрейт : 1536 Кбит/секКаналы : 2 каналаРасположение каналов : Front: L RЧастота : 48,0 КГцБитовая глубина : 16 битЗадержка видео : -262 мс.Размер потока : 173 Мбайт (17%)
Меню
ОбщееПолное имя : D:\DVD\Mahler_9_Barenboim_dvd\VIDEO_TS\VTS_02_6.VOBФормат : MPEG-PSРазмер файла : 120 МбайтПродолжительность : 1 м. 42 с.Общий поток : 9740 Кбит/сек
ВидеоИдентификатор : 224 (0xE0)Формат : MPEG VideoВерсия формата : Version 2Профиль формата : Main@MainПараметр BVOP формата : ДаПараметр матрицы формата : По умолчаниюПродолжительность : 33 мс.Вид битрейта : ПостоянныйБитрейт : 7500 Кбит/секШирина : 720 пикс.Высота : 480 пикс.Соотношение сторон : 2,35:1Частота кадров : 29,970 кадр/секСтандарт вещания : NTSCЦветовое пространство : YUVПодвыборка цветности : 4:2:0Битовая глубина : 8 битТип развёртки : ЧересстрочнаяПорядок развёртки : Верхнее поле первоеМетод сжатия : С потерямиБит/(Пиксели*Кадры) : 0.724Размер потока : 29,2 Кбайт (0%)
Аудио #1Идентификатор : 189 (0xBD)-137 (0x89)Формат : DTSФормат/Информация : Digital Theater SystemsРежим смешивания : DVD-VideoПродолжительность : 1 м. 42 с.Вид битрейта : ПостоянныйБитрейт : 755 Кбит/секКаналы : 6 каналовРасположение каналов : Front: L C R, Side: L R, LFEЧастота : 48,0 КГцБитовая глубина : 24 битМетод сжатия : С потерямиЗадержка видео : -232 мс.Размер потока : 9,26 Мбайт (8%)
Аудио #2Идентификатор : 189 (0xBD)-160 (0xA0)Формат : PCMПараметр Endianness формата : BigПараметр Sign формата : SignedРежим смешивания : DVD-VideoПродолжительность : 1 м. 42 с.Вид битрейта : ПостоянныйБитрейт : 1536 Кбит/секКаналы : 2 каналаРасположение каналов : Front: L RЧастота : 48,0 КГцБитовая глубина : 16 битЗадержка видео : -262 мс.Размер потока : 18,9 Мбайт (16%)
Меню
ОбщееПолное имя : D:\DVD\Mahler_9_Barenboim_dvd\VIDEO_TS\VTS_03_0.BUPФормат : DVD VideoПрофиль формата : ProgramРазмер файла : 14,0 КбайтПродолжительность : 1 м. 32 с.Общий поток : 1241 бит/сек
ВидеоИдентификатор : 224 (0xE0)Формат : MPEG VideoВерсия формата : Version 2Продолжительность : 1 м. 32 с.Вид битрейта : ПеременныйШирина : 720 пикс.Высота : 480 пикс.Соотношение сторон : 16:9Частота кадров : 29,970 кадр/секСтандарт вещания : NTSCМетод сжатия : С потерями
АудиоИдентификатор : 128 (0x80)Формат : AC-3Формат/Информация : Audio Coding 3Продолжительность : 1 м. 32 с.Каналы : 2 каналаЧастота : 48,0 КГцМетод сжатия : С потерями
МенюПродолжительность : 1 м. 32 с.00:00:00.000 : Chapter 100:01:32.000 : Chapter 2List (Audio) : 0
ОбщееПолное имя : D:\DVD\Mahler_9_Barenboim_dvd\VIDEO_TS\VTS_03_0.IFOФормат : DVD VideoПрофиль формата : ProgramРазмер файла : 14,0 КбайтПродолжительность : 1 м. 32 с.Общий поток : 1241 бит/сек
ВидеоИдентификатор : 224 (0xE0)Формат : MPEG VideoВерсия формата : Version 2Продолжительность : 1 м. 32 с.Вид битрейта : ПеременныйШирина : 720 пикс.Высота : 480 пикс.Соотношение сторон : 16:9Частота кадров : 29,970 кадр/секСтандарт вещания : NTSCМетод сжатия : С потерями
АудиоИдентификатор : 128 (0x80)Формат : AC-3Формат/Информация : Audio Coding 3Продолжительность : 1 м. 32 с.Каналы : 2 каналаЧастота : 48,0 КГцМетод сжатия : С потерями
МенюПродолжительность : 1 м. 32 с.00:00:00.000 : Chapter 100:01:32.000 : Chapter 2List (Audio) : 0
ОбщееПолное имя : D:\DVD\Mahler_9_Barenboim_dvd\VIDEO_TS\VTS_03_1.VOBФормат : MPEG-PSРазмер файла : 74,0 МбайтПродолжительность : 1 м. 32 с.Общий поток : 6744 Кбит/сек
ВидеоИдентификатор : 224 (0xE0)Формат : MPEG VideoВерсия формата : Version 2Профиль формата : Main@MainПараметр BVOP формата : ДаПараметр матрицы формата : По умолчаниюПараметры GOP формата : M=3, N=15Продолжительность : 1 м. 32 с.Вид битрейта : ПеременныйБитрейт : 6418 Кбит/секНоминальный битрейт : 8500 Кбит/секШирина : 720 пикс.Высота : 480 пикс.Соотношение сторон : 2,35:1Частота кадров : 29,970 кадр/секСтандарт вещания : NTSCЦветовое пространство : YUVПодвыборка цветности : 4:2:0Битовая глубина : 8 битТип развёртки : ЧересстрочнаяПорядок развёртки : Верхнее поле первоеМетод сжатия : С потерямиБит/(Пиксели*Кадры) : 0.620Размер потока : 70,5 Мбайт (95%)
АудиоИдентификатор : 189 (0xBD)-128 (0x80)Формат : AC-3Формат/Информация : Audio Coding 3Расширение режима : CM (complete main)Режим смешивания : DVD-VideoПродолжительность : 1 м. 32 с.Вид битрейта : ПостоянныйБитрейт : 192 Кбит/секКаналы : 2 каналаРасположение каналов : Front: L RЧастота : 48,0 КГцБитовая глубина : 16 битМетод сжатия : С потерямиРазмер потока : 2,11 Мбайт (3%)
Меню
ОбщееПолное имя : D:\DVD\Mahler_9_Barenboim_dvd\VIDEO_TS\VTS_04_0.BUPФормат : DVD VideoПрофиль формата : ProgramРазмер файла : 14,0 КбайтПродолжительность : 3 м. 23 с.Общий поток : 563 бит/сек
ВидеоИдентификатор : 224 (0xE0)Формат : MPEG VideoВерсия формата : Version 2Продолжительность : 3 м. 23 с.Вид битрейта : ПеременныйШирина : 720 пикс.Высота : 480 пикс.Соотношение сторон : 16:9Частота кадров : 29,970 кадр/секСтандарт вещания : NTSCМетод сжатия : С потерями
АудиоИдентификатор : 128 (0x80)Формат : AC-3Формат/Информация : Audio Coding 3Продолжительность : 3 м. 23 с.Каналы : 2 каналаЧастота : 48,0 КГцМетод сжатия : С потерями
МенюПродолжительность : 3 м. 23 с.00:00:00.000 : Chapter 100:03:23.000 : Chapter 2List (Audio) : 0
ОбщееПолное имя : D:\DVD\Mahler_9_Barenboim_dvd\VIDEO_TS\VTS_04_0.IFOФормат : DVD VideoПрофиль формата : ProgramРазмер файла : 14,0 КбайтПродолжительность : 3 м. 23 с.Общий поток : 563 бит/сек
ВидеоИдентификатор : 224 (0xE0)Формат : MPEG VideoВерсия формата : Version 2Продолжительность : 3 м. 23 с.Вид битрейта : ПеременныйШирина : 720 пикс.Высота : 480 пикс.Соотношение сторон : 16:9Частота кадров : 29,970 кадр/секСтандарт вещания : NTSCМетод сжатия : С потерями
АудиоИдентификатор : 128 (0x80)Формат : AC-3Формат/Информация : Audio Coding 3Продолжительность : 3 м. 23 с.Каналы : 2 каналаЧастота : 48,0 КГцМетод сжатия : С потерями
МенюПродолжительность : 3 м. 23 с.00:00:00.000 : Chapter 100:03:23.000 : Chapter 2List (Audio) : 0
ОбщееПолное имя : D:\DVD\Mahler_9_Barenboim_dvd\VIDEO_TS\VTS_04_1.VOBФормат : MPEG-PSРазмер файла : 164 МбайтПродолжительность : 3 м. 23 с.Общий поток : 6766 Кбит/сек
ВидеоИдентификатор : 224 (0xE0)Формат : MPEG VideoВерсия формата : Version 2Профиль формата : Main@MainПараметр BVOP формата : ДаПараметр матрицы формата : По умолчаниюПараметры GOP формата : M=3, N=15Продолжительность : 3 м. 23 с.Вид битрейта : ПеременныйБитрейт : 6440 Кбит/секНоминальный битрейт : 8500 Кбит/секШирина : 720 пикс.Высота : 480 пикс.Соотношение сторон : 2,35:1Частота кадров : 29,970 кадр/секСтандарт вещания : NTSCЦветовое пространство : YUVПодвыборка цветности : 4:2:0Битовая глубина : 8 битТип развёртки : ЧересстрочнаяПорядок развёртки : Верхнее поле первоеМетод сжатия : С потерямиБит/(Пиксели*Кадры) : 0.622Размер потока : 156 Мбайт (95%)
АудиоИдентификатор : 189 (0xBD)-128 (0x80)Формат : AC-3Формат/Информация : Audio Coding 3Расширение режима : CM (complete main)Режим смешивания : DVD-VideoПродолжительность : 3 м. 23 с.Вид битрейта : ПостоянныйБитрейт : 192 Кбит/секКаналы : 2 каналаРасположение каналов : Front: L RЧастота : 48,0 КГцБитовая глубина : 16 битМетод сжатия : С потерямиРазмер потока : 4,65 Мбайт (3%)
Меню
ОбщееПолное имя : D:\DVD\Mahler_9_Barenboim_dvd\VIDEO_TS\VTS_05_0.BUPФормат : DVD VideoПрофиль формата : ProgramРазмер файла : 14,0 КбайтПродолжительность : 2 м. 39 с.Общий поток : 719 бит/сек
ВидеоИдентификатор : 224 (0xE0)Формат : MPEG VideoВерсия формата : Version 2Продолжительность : 2 м. 39 с.Вид битрейта : ПеременныйШирина : 720 пикс.Высота : 480 пикс.Соотношение сторон : 4:3Частота кадров : 29,970 кадр/секСтандарт вещания : NTSCМетод сжатия : С потерями
АудиоИдентификатор : 128 (0x80)Формат : AC-3Формат/Информация : Audio Coding 3Продолжительность : 2 м. 39 с.Каналы : 2 каналаЧастота : 48,0 КГцМетод сжатия : С потерями
МенюПродолжительность : 2 м. 39 с.00:00:00.000 : Chapter 100:02:39.000 : Chapter 2List (Audio) : 0
ОбщееПолное имя : D:\DVD\Mahler_9_Barenboim_dvd\VIDEO_TS\VTS_05_0.IFOФормат : DVD VideoПрофиль формата : ProgramРазмер файла : 14,0 КбайтПродолжительность : 2 м. 39 с.Общий поток : 719 бит/сек
ВидеоИдентификатор : 224 (0xE0)Формат : MPEG VideoВерсия формата : Version 2Продолжительность : 2 м. 39 с.Вид битрейта : ПеременныйШирина : 720 пикс.Высота : 480 пикс.Соотношение сторон : 4:3Частота кадров : 29,970 кадр/секСтандарт вещания : NTSCМетод сжатия : С потерями
АудиоИдентификатор : 128 (0x80)Формат : AC-3Формат/Информация : Audio Coding 3Продолжительность : 2 м. 39 с.Каналы : 2 каналаЧастота : 48,0 КГцМетод сжатия : С потерями
МенюПродолжительность : 2 м. 39 с.00:00:00.000 : Chapter 100:02:39.000 : Chapter 2List (Audio) : 0
ОбщееПолное имя : D:\DVD\Mahler_9_Barenboim_dvd\VIDEO_TS\VTS_05_1.VOBФормат : MPEG-PSРазмер файла : 128 МбайтПродолжительность : 2 м. 39 с.Общий поток : 6763 Кбит/сек
ВидеоИдентификатор : 224 (0xE0)Формат : MPEG VideoВерсия формата : Version 2Профиль формата : Main@MainПараметр BVOP формата : ДаПараметр матрицы формата : По умолчаниюПараметры GOP формата : M=3, N=15Продолжительность : 2 м. 39 с.Вид битрейта : ПеременныйБитрейт : 6436 Кбит/секНоминальный битрейт : 8500 Кбит/секШирина : 720 пикс.Высота : 480 пикс.Соотношение сторон : 4:3Частота кадров : 29,970 кадр/секСтандарт вещания : NTSCЦветовое пространство : YUVПодвыборка цветности : 4:2:0Битовая глубина : 8 битТип развёртки : ЧересстрочнаяПорядок развёртки : Верхнее поле первоеМетод сжатия : С потерямиБит/(Пиксели*Кадры) : 0.621Размер потока : 122 Мбайт (95%)
АудиоИдентификатор : 189 (0xBD)-128 (0x80)Формат : AC-3Формат/Информация : Audio Coding 3Расширение режима : CM (complete main)Режим смешивания : DVD-VideoПродолжительность : 2 м. 39 с.Вид битрейта : ПостоянныйБитрейт : 192 Кбит/секКаналы : 2 каналаРасположение каналов : Front: L RЧастота : 48,0 КГцБитовая глубина : 16 битМетод сжатия : С потерямиРазмер потока : 3,64 Мбайт (3%)
Меню
ОбщееПолное имя : D:\DVD\Mahler_9_Barenboim_dvd\VIDEO_TS\VTS_06_0.BUPФормат : DVD VideoПрофиль формата : ProgramРазмер файла : 14,0 КбайтПродолжительность : 30 с.Общий поток : 3776 бит/сек
ВидеоИдентификатор : 224 (0xE0)Формат : MPEG VideoВерсия формата : Version 2Продолжительность : 30 с.Вид битрейта : ПеременныйШирина : 720 пикс.Высота : 480 пикс.Соотношение сторон : 16:9Частота кадров : 29,970 кадр/секСтандарт вещания : NTSCМетод сжатия : С потерями
АудиоИдентификатор : 128 (0x80)Формат : AC-3Формат/Информация : Audio Coding 3Продолжительность : 30 с.Каналы : 2 каналаЧастота : 48,0 КГцМетод сжатия : С потерями
МенюПродолжительность : 30 с.00:00:00.000 : Chapter 100:00:29.966 : Chapter 2List (Audio) : 0
ОбщееПолное имя : D:\DVD\Mahler_9_Barenboim_dvd\VIDEO_TS\VTS_06_0.IFOФормат : DVD VideoПрофиль формата : ProgramРазмер файла : 14,0 КбайтПродолжительность : 30 с.Общий поток : 3776 бит/сек
ВидеоИдентификатор : 224 (0xE0)Формат : MPEG VideoВерсия формата : Version 2Продолжительность : 30 с.Вид битрейта : ПеременныйШирина : 720 пикс.Высота : 480 пикс.Соотношение сторон : 16:9Частота кадров : 29,970 кадр/секСтандарт вещания : NTSCМетод сжатия : С потерями
АудиоИдентификатор : 128 (0x80)Формат : AC-3Формат/Информация : Audio Coding 3Продолжительность : 30 с.Каналы : 2 каналаЧастота : 48,0 КГцМетод сжатия : С потерями
МенюПродолжительность : 30 с.00:00:00.000 : Chapter 100:00:29.966 : Chapter 2List (Audio) : 0
ОбщееПолное имя : D:\DVD\Mahler_9_Barenboim_dvd\VIDEO_TS\VTS_06_1.VOBФормат : MPEG-PSРазмер файла : 24,4 МбайтПродолжительность : 29 с.Общий поток : 6858 Кбит/сек
ВидеоИдентификатор : 224 (0xE0)Формат : MPEG VideoВерсия формата : Version 2Профиль формата : Main@MainПараметр BVOP формата : ДаПараметр матрицы формата : По умолчаниюПродолжительность : 367 мс.Вид битрейта : ПеременныйБитрейт : 6530 Кбит/секНоминальный битрейт : 8500 Кбит/секШирина : 720 пикс.Высота : 480 пикс.Соотношение сторон : 16:9Частота кадров : 29,970 кадр/секСтандарт вещания : NTSCЦветовое пространство : YUVПодвыборка цветности : 4:2:0Битовая глубина : 8 битТип развёртки : ЧересстрочнаяПорядок развёртки : Верхнее поле первоеМетод сжатия : С потерямиБит/(Пиксели*Кадры) : 0.630Размер потока : 293 Кбайт (1%)
АудиоИдентификатор : 189 (0xBD)-128 (0x80)Формат : AC-3Формат/Информация : Audio Coding 3Расширение режима : CM (complete main)Режим смешивания : DVD-VideoПродолжительность : 29 с.Вид битрейта : ПостоянныйБитрейт : 192 Кбит/секКаналы : 2 каналаРасположение каналов : Front: L RЧастота : 48,0 КГцБитовая глубина : 16 битМетод сжатия : С потерямиРазмер потока : 699 Кбайт (3%)
Меню
ОбщееПолное имя : D:\DVD\Mahler_9_Barenboim_dvd\VIDEO_TS\VTS_07_0.BUPФормат : DVD VideoПрофиль формата : ProgramРазмер файла : 14,0 КбайтПродолжительность : 3 м. 59 с.Общий поток : 479 бит/сек
ВидеоИдентификатор : 224 (0xE0)Формат : MPEG VideoВерсия формата : Version 2Продолжительность : 3 м. 59 с.Вид битрейта : ПеременныйШирина : 720 пикс.Высота : 480 пикс.Соотношение сторон : 16:9Частота кадров : 29,970 кадр/секСтандарт вещания : NTSCМетод сжатия : С потерями
АудиоИдентификатор : 128 (0x80)Формат : AC-3Формат/Информация : Audio Coding 3Продолжительность : 3 м. 59 с.Каналы : 2 кана



Показать сообщения:    

Текущее время: 09-Дек 03:02

Часовой пояс: UTC + 3


Вы не можете начинать темы
Вы не можете отвечать на сообщения
Вы не можете редактировать свои сообщения
Вы не можете удалять свои сообщения
Вы не можете голосовать в опросах
Вы не можете прикреплять файлы к сообщениям
Вы не можете скачивать файлы