Beethoven - Missa Solemnis in D Major (Thielemann, Beyer, Stoyanova, Garanca, Schade, Selig) [2010, Classical, Blu-ray, 1080i]


 

[Цитировать]

Ludwig van Beethoven - Missa Solemnis in D Major- Год выпуска: 2010
Лейбл: C Major
Жанр: Classical-Продолжительность: 01:27:57
Язык: Latin
Субтитры: English | French | German | Japanese | Latin | Spanish-Дирижер: Christian Thielemann
Режиссер: Michael Beyer
Исполнители: Krassimira Stoyanova (mezzo-soprano), Elina Garanča (mezzo-soprano), Michael Schade (tenor), Franz-Josef Selig (bass)-Треклист:
1. Introducción (Christian Thieleman) y créditos iniciales
2. Kyrie
3. Glroria
4. Credo
5. Sanctus - Benedictus
6. Agnus Dei
7. Conclusión y créditos finales
-Описание: Beethoven's Missa solemnis was performed on 13 and 14 February 2010 at the traditional memorial concert to commemorate the bombardment of dresden during the last weeks of World War II. Under Christian Thielemann, the Staatskapelle Dresden proved itself exceptionally qualified to master this work's magnificient challenges. Thielemann "conjured up the gigantic cosmos of the Missa with such lightness and grace that its mystery seemed to reveal itself", wrote the Frankfurter Allgemeine-Zeitung. No less remarkable was the fabulously homogenous solo quartet of singers.
Recorded live at the Semperoper, Dresden, 13 February 2010.-Качество видео: Blu-ray
Формат/Контейнер: BDMV
Видео кодек: MPEG-4
Аудио кодек: PCM | DTS
Видео поток: 21922 kbps |1080i | 29,970 fps | 16:9 | High Profile 4.1
Аудио поток#1: 3850 kbps | 5.1 |48 kHz | 3850 kbps | 24-bit
Аудио поток#2: 2304 kbps | 2.0 | 48 kHz | 2304 kbps | 24-bit
Cover Scan: IMGKeep (8.5 MB, 300 dpi, png)-За предоставленный материал большое спасибо pirxnew-

Скриншоты




-

BDinfo

Disc Title: MISSA SOLEMNIS
Disc Size: 19,580,083,260 bytes
Protection: AACS
BD-Java: No
BDInfo: 0.5.2
Notes:
BDINFO HOME AND REPORTS SUBMISSION:
Cinema Squid
http://www.cinemasquid.com/Tools.aspx
INCLUDES FORUMS REPORT FOR:
Unofficial Blu-ray Audio and Video Specifications Thread
http://www.avsforum.com/avs-vb/showthread.php?t=760714
http://forum.blu-ray.com/showthread.php?t=3338
********************
PLAYLIST: 00001.MPLS
********************
Total   Video
Title                                                           Codec   Length  Movie Size      Disc Size       Bitrate Bitrate Main Audio Track                          Secondary Audio Track
-----                                                           ------  ------- --------------  --------------  ------- ------- ------------------                        ---------------------
00001.MPLS                                                      AVC     1:27:57 19,573,776,384  19,580,083,260  29.67   21.92   DTS-HD Master 5.1 3850Kbps (48kHz/24-bit) LPCM 2.0 2304Kbps (48kHz/24-bit)
DISC INFO:
Disc Title:     MISSA SOLEMNIS
Disc Size:      19,580,083,260 bytes
Protection:     AACS
BD-Java:        No
BDInfo:         0.5.2
PLAYLIST REPORT:
Name:                   00001.MPLS
Size:                   19,573,776,384 bytes
Length:                 1:27:57 (h:m:s)
Total Bitrate:          29.67 Mbps
Description:
VIDEO:
Codec                   Bitrate             Description
-----                   -------             -----------
MPEG-4 AVC Video        21922 kbps          1080i / 29.970 fps / 16:9 / High Profile 4.1
AUDIO:
Codec                           Language        Bitrate         Description
-----                           --------        -------         -----------
DTS-HD Master Audio             Undetermined    3850 kbps       5.1 / 48 kHz / 3850 kbps / 24-bit (DTS Core: 5.1 / 48 kHz / 1509 kbps / 24-bit)
LPCM Audio                      Undetermined    2304 kbps       2.0 / 48 kHz / 2304 kbps / 24-bit
SUBTITLES:
Codec                           Language        Bitrate         Description
-----                           --------        -------         -----------
Presentation Graphics           English         2.534 kbps
Presentation Graphics           French          2.491 kbps
Presentation Graphics           German          2.771 kbps
Presentation Graphics           Japanese        1.293 kbps
Presentation Graphics           Latin           2.264 kbps
Presentation Graphics           Spanish         2.384 kbps
FILES:
Name            Time In         Length          Size            Total Bitrate
----            -------         ------          ----            -------------
00000.M2TS      0:00:00.000     1:27:38.253     19,571,048,448  29,776
00004.M2TS      1:27:38.253     0:00:08.408     958,464         912
00003.M2TS      1:27:46.661     0:00:10.043     1,757,184       1,400
00005.M2TS      1:27:56.704     0:00:00.333     12,288          295
CHAPTERS:
Number          Time In         Length          Avg Video Rate  Max 1-Sec Rate  Max 1-Sec Time  Max 5-Sec Rate  Max 5-Sec Time  Max 10Sec Rate  Max 10Sec Time  Avg Frame Size  Max Frame Size  Max Frame Time
------          -------         ------          --------------  --------------  --------------  --------------  --------------  --------------  --------------  --------------  --------------  --------------
1               0:00:00.000     0:01:16.376     23,581 kbps     37,476 kbps     00:01:09.002    34,475 kbps     00:01:04.998    31,851 kbps     00:01:00.093    98,308 bytes    568,463 bytes   00:01:07.801
2               0:01:16.376     0:10:19.218     21,410 kbps     30,798 kbps     00:04:41.581    28,854 kbps     00:04:40.013    27,858 kbps     00:04:36.676    89,298 bytes    471,401 bytes   00:09:08.247
3               0:11:35.594     0:18:15.661     22,459 kbps     37,145 kbps     00:23:47.592    33,197 kbps     00:23:46.124    31,525 kbps     00:12:57.510    93,673 bytes    478,667 bytes   00:13:14.894
4               0:29:51.256     0:21:27.919     22,318 kbps     36,526 kbps     00:31:39.497    33,860 kbps     00:31:36.928    32,713 kbps     00:30:48.680    93,084 bytes    473,931 bytes   00:47:54.938
5               0:51:19.176     0:17:29.248     21,862 kbps     37,011 kbps     00:53:45.655    32,199 kbps     00:54:38.642    31,003 kbps     01:08:06.382    91,182 bytes    461,107 bytes   00:55:21.217
6               1:08:48.424     0:17:22.975     21,730 kbps     33,186 kbps     01:25:51.012    31,627 kbps     01:25:49.410    31,054 kbps     01:25:47.642    90,631 bytes    494,160 bytes   01:22:52.734
7               1:26:11.399     0:01:26.853     19,014 kbps     35,105 kbps     01:26:43.831    32,529 kbps     01:26:40.762    31,985 kbps     01:26:35.757    79,305 bytes    464,898 bytes   01:26:44.832
8               1:27:38.253     0:00:08.408     795 kbps        1,474 kbps      01:27:43.625    985 kbps        01:27:39.420    0 kbps          00:00:00.000    3,315 bytes     23,543 bytes    01:27:41.255
9               1:27:46.661     0:00:10.377     1,226 kbps      1,767 kbps      01:27:48.062    1,519 kbps      01:27:47.428    1,267 kbps      01:27:46.661    5,132 bytes     21,711 bytes    01:27:54.669
STREAM DIAGNOSTICS:
File            PID             Type            Codec           Language                Seconds                 Bitrate                 Bytes           Packets
----            ---             ----            -----           --------                --------------          --------------          -------------   -----
00000.M2TS      4113 (0x1011)   0x1B            AVC                                     5258.120                21,997                  14,457,906,140  78,667,394
00000.M2TS      4352 (0x1100)   0x80            LPCM            und (Undetermined)      5258.120                2,310                   1,518,563,828   8,413,096
00000.M2TS      4353 (0x1101)   0x86            DTS-HD MA       und (Undetermined)      5258.120                3,864                   2,539,834,292   14,622,775
00000.M2TS      4608 (0x1200)   0x90            PGS             lat (Latin)             5258.120                2                       1,493,154       8,757
00000.M2TS      4609 (0x1201)   0x90            PGS             eng (English)           5258.120                3                       1,671,245       9,719
00000.M2TS      4610 (0x1202)   0x90            PGS             deu (German)            5258.120                3                       1,827,570       10,578
00000.M2TS      4611 (0x1203)   0x90            PGS             fra (French)            5258.120                3                       1,643,441       9,575
00000.M2TS      4612 (0x1204)   0x90            PGS             spa (Spanish)           5258.120                2                       1,572,263       9,185
00000.M2TS      4613 (0x1205)   0x90            PGS             jpn (Japanese)          5258.120                1                       852,908         5,280
00004.M2TS      4113 (0x1011)   0x1B            AVC                                     8.308                   804                     835,358         4,697
00003.M2TS      4113 (0x1011)   0x1B            AVC                                     9.910                   1,281                   1,587,250       8,807
00005.M2TS      4113 (0x1011)   0x1B            AVC                                     0.200                   244                     6,108           41
QUICK SUMMARY:
Disc Title: MISSA SOLEMNIS
Disc Size: 19,580,083,260 bytes
Protection: AACS
BD-Java: No
Playlist: 00001.MPLS
Size: 19,573,776,384 bytes
Length: 1:27:57
Total Bitrate: 29.67 Mbps
Video: MPEG-4 AVC Video / 21922 kbps / 1080i / 29.970 fps / 16:9 / High Profile 4.1
Audio: Undetermined / DTS-HD Master Audio / 5.1 / 48 kHz / 3850 kbps / 24-bit (DTS Core: 5.1 / 48 kHz / 1509 kbps / 24-bit)
Audio: Undetermined / LPCM Audio / 2.0 / 48 kHz / 2304 kbps / 24-bit
Subtitle: English / 2.534 kbps
Subtitle: French / 2.491 kbps
Subtitle: German / 2.771 kbps
Subtitle: Japanese / 1.293 kbps
Subtitle: Latin / 2.264 kbps
Subtitle: Spanish / 2.384 kbps
********************
PLAYLIST: 00002.MPLS
********************
Total   Video
Title                                                           Codec   Length  Movie Size      Disc Size       Bitrate Bitrate Main Audio Track                          Secondary Audio Track
-----                                                           ------  ------- --------------  --------------  ------- ------- ------------------                        ---------------------
00002.MPLS                                                      AVC     0:00:32 7,354,368       19,580,083,260  1.81    1.66
DISC INFO:
Disc Title:     MISSA SOLEMNIS
Disc Size:      19,580,083,260 bytes
Protection:     AACS
BD-Java:        No
BDInfo:         0.5.2
PLAYLIST REPORT:
Name:                   00002.MPLS
Size:                   7,354,368 bytes
Length:                 0:00:32 (h:m:s)
Total Bitrate:          1.81 Mbps
Description:
VIDEO:
Codec                   Bitrate             Description
-----                   -------             -----------
MPEG-4 AVC Video        1656 kbps           1080i / 29.970 fps / 16:9 / High Profile 4.1
FILES:
Name            Time In         Length          Size            Total Bitrate
----            -------         ------          ----            -------------
00002.M2TS      0:00:00.000     0:00:14.047     4,012,032       2,285
00003.M2TS      0:00:14.047     0:00:10.043     1,757,184       1,400
00006.M2TS      0:00:24.090     0:00:08.041     1,572,864       1,565
00005.M2TS      0:00:32.132     0:00:00.333     12,288          295
CHAPTERS:
Number          Time In         Length          Avg Video Rate  Max 1-Sec Rate  Max 1-Sec Time  Max 5-Sec Rate  Max 5-Sec Time  Max 10Sec Rate  Max 10Sec Time  Avg Frame Size  Max Frame Size  Max Frame Time
------          -------         ------          --------------  --------------  --------------  --------------  --------------  --------------  --------------  --------------  --------------  --------------
1               0:00:00.000     0:00:14.047     2,109 kbps      6,131 kbps      00:00:00.-033   2,531 kbps      00:00:00.-033   2,015 kbps      00:00:00.-033   8,774 bytes     109,998 bytes   00:00:08.408
2               0:00:14.047     0:00:10.043     1,264 kbps      1,767 kbps      00:00:15.448    1,519 kbps      00:00:14.814    1,267 kbps      00:00:14.047    5,273 bytes     21,711 bytes    00:00:22.055
3               0:00:24.090     0:00:08.375     1,368 kbps      2,679 kbps      00:00:30.296    1,291 kbps      00:00:24.090    0 kbps          00:00:00.000    5,728 bytes     44,954 bytes    00:00:29.696
STREAM DIAGNOSTICS:
File            PID             Type            Codec           Language                Seconds                 Bitrate                 Bytes           Packets
----            ---             ----            -----           --------                --------------          --------------          -------------   -----
00002.M2TS      4113 (0x1011)   0x1B            AVC                                     13.914                  2,127                   3,700,197       20,418
00003.M2TS      4113 (0x1011)   0x1B            AVC                                     9.910                   1,281                   1,587,250       8,807
00006.M2TS      4113 (0x1011)   0x1B            AVC                                     7.975                   1,433                   1,428,219       7,914
00005.M2TS      4113 (0x1011)   0x1B            AVC                                     0.200                   244                     6,108           41
QUICK SUMMARY:
Disc Title: MISSA SOLEMNIS
Disc Size: 19,580,083,260 bytes
Protection: AACS
BD-Java: No
Playlist: 00002.MPLS
Size: 7,354,368 bytes
Length: 0:00:32
Total Bitrate: 1.81 Mbps
Video: MPEG-4 AVC Video / 1656 kbps / 1080i / 29.970 fps / 16:9 / High Profile 4.1
-



Показать сообщения:    

Текущее время: 11-Дек 07:14

Часовой пояс: UTC + 3


Вы не можете начинать темы
Вы не можете отвечать на сообщения
Вы не можете редактировать свои сообщения
Вы не можете удалять свои сообщения
Вы не можете голосовать в опросах
Вы не можете прикреплять файлы к сообщениям
Вы не можете скачивать файлы